<?xml version="1.0" standalone="no"?>
<!DOCTYPE svg PUBLIC "-//W3C//DTD SVG 1.1//EN" "http://www.w3.org/Graphics/SVG/1.1/DTD/svg11.dtd" >
<svg xmlns="http://www.w3.org/2000/svg">
<metadata>
<json>
<![CDATA[
{
	"fontFamily": "saxoprint",
	"majorVersion": 1,
	"minorVersion": 0,
	"version": "Version 1.0",
	"fontId": "saxoprint",
	"psName": "saxoprint",
	"subFamily": "Regular",
	"fullName": "saxoprint",
	"description": "Font generated by IcoMoon."
}
]]>
</json>
</metadata>
<defs>
<font id="saxoprint" horiz-adv-x="1024">
<font-face units-per-em="1024" ascent="960" descent="-64" />
<missing-glyph horiz-adv-x="1024" />
<glyph unicode="&#x20;" horiz-adv-x="512" d="" />
<glyph unicode="&#xe900;" glyph-name="sxp_email16" data-tags="sxp_email16" d="M512-64c-282.77 0-512 229.23-512 512s229.23 512 512 512c282.77 0 512-229.23 512-512v0c0.006-0.698 0.009-1.524 0.009-2.35 0-74.094-27.136-141.851-72.013-193.873l0.323 0.383c-35.631-35.433-84.75-57.336-138.985-57.336-1.651 0-3.297 0.020-4.939 0.061l0.243-0.005c-53.986 2.122-101.345 28.745-131.519 68.993l-0.321 0.447c-55.785-42.949-126.642-68.834-203.544-68.834-1.679 0-3.356 0.012-5.029 0.037l0.253-0.003c-88.235 0.055-162.543 59.622-184.962 140.731l-0.318 1.349c-32 98.88-13.12 244.8 88.32 320 44.48 32 132.8 72 266.56 10.56 11.771 13.35 28.904 21.735 47.996 21.76h0.004c35.346 0 64-28.654 64-64v0 0-203.2s0-14.72 1.92-22.4c8.64-50.56 41.92-78.080 56.64-78.080 1.643-0.144 3.555-0.227 5.487-0.227 18.186 0 34.669 7.294 46.682 19.115l-0.009-0.009c21.978 28.387 35.23 64.497 35.23 103.701 0 1.118-0.011 2.233-0.032 3.346l0.003-0.167c0.003 0.554 0.005 1.209 0.005 1.865 0 212.077-171.923 384-384 384s-384-171.923-384-384c0-212.077 171.923-384 384-384 53.844 0 105.1 11.082 151.611 31.090l-2.496-0.955c7.366 3.199 15.946 5.059 24.96 5.059 35.401 0 64.099-28.698 64.099-64.099 0-26.387-15.944-49.050-38.723-58.88l-0.416-0.16c-58.624-26.052-126.973-41.43-198.858-41.919l-0.182-0.001zM504 573.12c-0.628 0.016-1.368 0.024-2.111 0.024-20.271 0-38.997-6.613-54.138-17.8l0.249 0.176c-48.96-36.48-62.080-121.28-43.52-177.6s52.48-54.4 64-54.4c47.68 0 152.32 22.72 153.6 90.24v118.72c-33.393 22.418-73.72 37.094-117.204 40.583l-0.876 0.057z" />
<glyph unicode="&#xe901;" glyph-name="sxp_email24" data-tags="sxp_email24" d="M512-64c-282.77 0-512 229.23-512 512s229.23 512 512 512c282.77 0 512-229.23 512-512v0c0-4.16 0-118.4-68.16-188.16-32.469-32.676-77.436-52.9-127.126-52.9-2.108 0-4.207 0.036-6.297 0.109l0.303-0.008c-57.846 4.136-107.111 37.324-133.648 84.916l-0.432 0.844c-55.63-52.59-130.893-84.921-213.707-84.921-3.057 0-6.103 0.044-9.139 0.132l0.446-0.010c-81.6 0.384-150.165 55.738-170.592 130.915l-0.288 1.245c-32 96-9.6 238.4 83.84 308.48 44.16 32 134.4 71.36 274.56 0 5.292 17.711 21.438 30.4 40.547 30.4 0.033 0 0.066 0 0.098 0h-0.005c23.102-0.521 41.63-19.371 41.63-42.55 0-0.566-0.011-1.13-0.033-1.691l0.003 0.081v-213.12c0-6.72 0-21.44 2.24-27.2 10.56-60.16 52.48-102.080 83.52-102.080 2.011-0.15 4.357-0.236 6.722-0.236 26.329 0 50.183 10.599 67.526 27.764l-0.008-0.008c43.52 44.16 43.52 128 43.52 128-0.017 235.216-190.701 425.891-425.92 425.891-235.229 0-425.92-190.691-425.92-425.92s190.691-425.92 425.92-425.92c59.618 0 116.375 12.249 167.891 34.368l-2.771-1.058c5.353 2.608 11.647 4.133 18.296 4.133 23.505 0 42.56-19.055 42.56-42.56 0-18.6-11.931-34.413-28.558-40.203l-0.299-0.091c-58.614-25.646-126.915-40.59-198.701-40.64h-0.019zM503.36 603.2c-0.785 0.019-1.709 0.029-2.637 0.029-26.463 0-50.903-8.658-70.643-23.296l0.32 0.227c-61.76-46.080-76.16-146.56-54.080-213.12 9.554-41.808 46.004-72.681 89.82-73.598l0.1-0.002c59.84 0 184 28.8 185.28 118.080 0.058 1.051 0.091 2.282 0.091 3.52s-0.033 2.469-0.098 3.69l0.007-0.17v131.52c-41.37 29.904-92.179 49.23-147.255 53.069l-0.905 0.051z" />
<glyph unicode="&#xe902;" glyph-name="sxp_email32" data-tags="sxp_email32" d="M512-64c-282.77 0-512 229.23-512 512s229.23 512 512 512c282.77 0 512-229.23 512-512v0c0-4.16 0-116.16-66.24-184.32-31.275-31.297-74.493-50.656-122.232-50.656-2.028 0-4.048 0.035-6.060 0.104l0.292-0.008c-60.427 5.352-110.991 42.79-134.94 94.98l-0.42 1.020c-49.28-62.080-141.44-96-229.12-96-78.452 0.862-144.174 54.361-163.567 126.803l-0.273 1.197c-32 96-9.6 233.92 81.92 302.4 44.16 32 136.96 71.68 283.2-10.24v6.72c0 17.673 14.327 32 32 32v0 0c17.673 0 32-14.327 32-32v0 0-217.92c0-7.040 1.6-23.040 2.88-29.76 11.84-68.48 59.52-114.56 96-114.56 1.433-0.067 3.114-0.105 4.803-0.105 30.246 0 57.627 12.27 77.436 32.104l0.001 0.001c48.32 47.36 48.32 138.24 48.32 138.24-0.003 247.422-200.578 447.996-448 447.996-247.424 0-448-200.576-448-448s200.576-448 448-448c62.861 0 122.699 12.947 176.991 36.319l-2.911-1.115c3.679 1.599 7.965 2.529 12.467 2.529 13.154 0 24.454-7.936 29.373-19.282l0.080-0.207c1.568-3.648 2.481-7.894 2.481-12.353 0-13.257-8.062-24.632-19.55-29.488l-0.21-0.079c-58.594-25.49-126.85-40.32-198.569-40.32-0.053 0-0.106 0-0.159 0h0.009zM503.040 618.56c-0.815 0.018-1.776 0.028-2.739 0.028-29.582 0-56.889-9.743-78.886-26.195l0.345 0.247c-67.52-50.56-83.52-160-59.52-231.040 11.583-47.372 53.065-82.197 102.896-83.517l0.144-0.003c76.8 0 199.68 36.16 201.28 132.48v148.16c-45.433 33.755-101.571 55.558-162.547 59.786l-0.973 0.054z" />
<glyph unicode="&#xe903;" glyph-name="sxp_facebook40" data-tags="sxp_facebook40" d="M512 934.4c268.631 0 486.4-217.769 486.4-486.4s-217.769-486.4-486.4-486.4c-268.631 0-486.4 217.769-486.4 486.4v0c0.364 268.484 217.915 486.036 486.365 486.4h0.035zM512 960c-282.77 0-512-229.23-512-512s229.23-512 512-512c282.77 0 512 229.23 512 512v0c0 282.77-229.23 512-512 512v0zM440.32 600.32v-68.8h-50.24v-83.52h50.24v-249.6h103.68v249.6h69.44s6.4 40.32 9.6 84.48h-79.040v56.64c1.941 11.023 11.089 19.406 22.326 20.156l0.074 0.004h56.32v87.36h-76.8c-108.48 0-105.92-83.84-105.92-96z" />
<glyph unicode="&#xe904;" glyph-name="sxp_twitter40" data-tags="sxp_twitter40" d="M512 934.4c268.631 0 486.4-217.769 486.4-486.4s-217.769-486.4-486.4-486.4c-268.631 0-486.4 217.769-486.4 486.4v0c0.364 268.484 217.915 486.036 486.365 486.4h0.035zM512 960c-282.77 0-512-229.23-512-512s229.23-512 512-512c282.77 0 512 229.23 512 512v0c0 282.77-229.23 512-512 512v0zM448 224c0.573-0.004 1.251-0.007 1.929-0.007 155.7 0 281.92 126.22 281.92 281.92 0 0.79-0.003 1.579-0.010 2.367l0.001-0.121c0 4.16 0 8.64 0 12.8 19.602 14.295 36.154 31.357 49.463 50.812l0.457 0.708c-16.651-7.381-35.976-12.884-56.192-15.562l-1.088-0.118c20.581 12.785 35.985 32.237 43.324 55.286l0.196 0.714c-18.416-11.165-39.874-19.615-62.749-24.115l-1.251-0.205c-18.229 19.609-44.167 31.838-72.961 31.838-54.963 0-99.52-44.557-99.52-99.52 0-0.168 0-0.336 0.001-0.504v0.026c-0.009-0.462-0.014-1.008-0.014-1.554 0-7.515 0.939-14.811 2.705-21.776l-0.131 0.611c-83.181 4.222-156.356 43.764-205.356 103.81l-0.404 0.51c-8.449-14.29-13.441-31.492-13.441-49.86 0-0.134 0-0.267 0.001-0.401v0.021c0.004-34.468 17.364-64.882 43.815-82.977l0.345-0.223c-16.544 0.339-32.027 4.561-45.674 11.788l0.554-0.268c0.781-47.399 34.581-86.682 79.357-95.89l0.643-0.11c-7.459-2.24-16.030-3.53-24.902-3.53-0.47 0-0.94 0.004-1.409 0.011l0.071-0.001c-6.702 0.047-13.233 0.627-19.596 1.7l0.716-0.1c13.12-40.019 49.874-68.521 93.37-69.119l0.070-0.001c-33.695-26.729-76.835-42.88-123.747-42.88-0.145 0-0.29 0-0.435 0h0.023c-8 0-16 0-23.68 0 43.329-28.627 96.431-45.781 153.522-46.080h0.078z" />
<glyph unicode="&#xe905;" glyph-name="youtube40" data-tags="youtube40" d="M512 934.4c268.631 0 486.4-217.769 486.4-486.4s-217.769-486.4-486.4-486.4c-268.631 0-486.4 217.769-486.4 486.4v0c0.364 268.484 217.915 486.036 486.365 486.4h0.035zM512 960c-282.77 0-512-229.23-512-512s229.23-512 512-512c282.77 0 512 229.23 512 512v0c0 282.77-229.23 512-512 512v0zM658.56 352h-26.56v15.36c0 6.893 5.587 12.48 12.48 12.48v0h1.6c6.821-0.174 12.306-5.659 12.48-12.464v-0.016zM559.36 384c-0.308 0.030-0.666 0.047-1.028 0.047-5.751 0-10.49-4.335-11.127-9.916l-0.005-0.052v-74.56c1.322-5.582 6.263-9.672 12.16-9.672s10.838 4.090 12.143 9.587l0.017 0.085v76.48c-0.642 5.632-5.381 9.967-11.132 9.967-0.362 0-0.72-0.017-1.073-0.051l0.045 0.003zM719.36 427.52v-141.76c-1.239-34.371-29.401-61.764-63.961-61.764-0.239 0-0.477 0.001-0.715 0.004h-270.684c-0.009 0-0.019 0-0.029 0-34.671 0-62.903 27.57-63.969 61.982l-0.002 0.098v141.44c1.068 34.51 29.3 62.080 63.971 62.080 0.010 0 0.020 0 0.030 0h269.758c0.485 0.013 1.056 0.021 1.628 0.021 34.678 0 62.915-27.581 63.969-62.004l0.002-0.097zM401.92 270.4v149.44h33.6v22.080h-88.32v-21.76h27.84v-149.76zM502.080 398.4h-27.84v-79.68c0.175-2.917 0.275-6.327 0.275-9.76s-0.1-6.843-0.297-10.227l0.022 0.467c-2.24-6.080-12.48-12.8-16.32 0 0 2.24 0 8.64 0 19.52v78.72h-27.84v-79.040c0-12.16 0-21.12 0-25.28s0-15.68 7.040-20.48c3.793-1.575 8.199-2.49 12.818-2.49 12.901 0 24.136 7.135 29.973 17.674l0.089 0.176v-16.32h22.4zM591.36 307.2v65.28c0 25.28-18.88 40.64-44.8 20.16v49.28h-27.84v-170.56h25.28l1.92 10.56c29.44-26.88 47.68-8.32 47.68 24zM680.96 314.56h-21.12v-14.72c0-6.186-5.014-11.2-11.2-11.2v0h-5.44c-0.001 0-0.003 0-0.004 0-6.25 0-11.337 4.977-11.515 11.184v32.016h48v18.24c0.376 5.027 0.59 10.888 0.59 16.8s-0.214 11.773-0.636 17.578l0.045-0.778c-3.52 24-36.8 27.84-53.76 15.68-5.344-3.957-9.366-9.427-11.456-15.774l-0.064-0.226c-2.289-7.192-3.608-15.464-3.608-24.044 0-1.335 0.032-2.663 0.095-3.982l-0.007 0.186v-39.68c0-65.92 80-56.64 70.4 0zM574.080 530.88c1.24-3.534 3.602-6.414 6.651-8.281l0.069-0.039c2.86-2.018 6.417-3.225 10.256-3.225 0.332 0 0.662 0.009 0.99 0.027l-0.046-0.002c0.163-0.005 0.355-0.008 0.548-0.008 3.862 0 7.443 1.2 10.392 3.248l-0.060-0.039c3.228 2.776 5.823 6.19 7.604 10.057l0.076 0.183v-11.2h32v131.2h-24.64v-102.72c0-5.655-4.585-10.24-10.24-10.24v0c-5.585 0.172-10.068 4.655-10.24 10.224v102.736h-25.28v-88.96c0-11.52 0-18.88 0-22.72 0.341-4.123 1.367-7.926 2.967-11.411l-0.087 0.211zM479.040 604.8c-0.015 0.696-0.024 1.517-0.024 2.34 0 9.618 1.175 18.961 3.39 27.894l-0.167-0.794c1.904 7.075 5.974 13.014 11.445 17.224l0.075 0.056c5.295 4.028 12 6.453 19.271 6.453 0.65 0 1.296-0.019 1.937-0.058l-0.088 0.004c0.384 0.014 0.835 0.022 1.288 0.022 6.307 0 12.254-1.547 17.48-4.281l-0.208 0.099c4.916-2.549 8.923-6.248 11.767-10.756l0.073-0.124c2.65-3.931 4.649-8.543 5.713-13.501l0.047-0.259c0.328-3.214 0.516-6.945 0.516-10.72s-0.187-7.506-0.553-11.185l0.037 0.465v-33.6c0.329-4.024 0.516-8.71 0.516-13.44s-0.187-9.416-0.555-14.052l0.039 0.612c-0.94-6.037-3.080-11.437-6.175-16.154l0.095 0.154c-2.951-4.7-6.946-8.491-11.676-11.117l-0.164-0.083c-4.909-2.225-10.644-3.521-16.682-3.521-0.098 0-0.195 0-0.293 0.001h0.015c-0.475-0.019-1.033-0.030-1.594-0.030-5.889 0-11.5 1.187-16.608 3.335l0.282-0.105c-4.746 1.843-8.666 4.938-11.468 8.883l-0.052 0.077c-3.257 4.315-5.613 9.495-6.684 15.13l-0.036 0.23c-1.253 6.725-1.969 14.462-1.969 22.367 0 1.25 0.018 2.495 0.053 3.736l-0.004-0.183v34.88zM503.36 552c0-6.893 5.587-12.48 12.48-12.48s12.48 5.587 12.48 12.48v70.4c0 6.893-5.587 12.48-12.48 12.48s-12.48-5.587-12.48-12.48v0zM416 516.48h29.12v101.44l34.88 86.080h-32l-18.24-64-18.88 64h-32l37.12-86.080z" />
<glyph unicode="&#xe906;" glyph-name="sxp_instagram40" data-tags="sxp_instagram40" d="M512 934.4c268.631 0 486.4-217.769 486.4-486.4s-217.769-486.4-486.4-486.4c-268.631 0-486.4 217.769-486.4 486.4v0c0.364 268.484 217.915 486.036 486.365 486.4h0.035zM512 960c-282.77 0-512-229.23-512-512s229.23-512 512-512c282.77 0 512 229.23 512 512v0c0 282.77-229.23 512-512 512v0zM512 665.6c-59.2 0-66.56 0-89.6 0-19.063-0.313-37.165-4.044-53.845-10.602l1.045 0.362c-29.674-11.311-52.689-34.326-63.749-63.252l-0.251-0.748c-6.196-15.635-9.927-33.737-10.238-52.671l-0.002-0.129c0-23.040 0-32 0-89.6s0-66.56 0-89.6c0.313-19.063 4.044-37.165 10.602-53.845l-0.362 1.045c11.311-29.674 34.326-52.689 63.252-63.749l0.748-0.251c15.635-6.196 33.737-9.927 52.671-10.238l0.129-0.002c23.040 0 32 0 89.6 0s66.56 0 89.6 0c19.063 0.313 37.165 4.044 53.845 10.602l-1.045-0.362c29.674 11.311 52.689 34.326 63.749 63.252l0.251 0.748c6.040 15.633 9.754 33.711 10.236 52.593l0.004 0.207c0 23.040 0 30.4 0 89.6s0 66.56 0 89.6c-0.486 19.089-4.2 37.167-10.613 53.909l0.373-1.109c-11.311 29.674-34.326 52.689-63.252 63.749l-0.748 0.251c-15.635 6.196-33.737 9.927-52.671 10.238l-0.129 0.002c-23.040 0-30.4 0-89.6 0zM492.48 626.24h19.52c58.24 0 64 0 88 0 14.56-0.654 28.215-3.768 40.81-8.934l-0.81 0.294c19.169-7.543 34.057-22.431 41.429-41.108l0.171-0.492c4.63-11.973 7.327-25.827 7.36-40.306v-0.014c0-23.040 0-29.76 0-88s0-64 0-88c-0.291-14.311-2.964-27.91-7.638-40.538l0.278 0.858c-3.584-9.834-9.163-18.193-16.29-24.932l-0.030-0.028c-6.863-7.013-15.189-12.563-24.488-16.159l-0.472-0.161c-11.971-4.466-25.8-7.146-40.226-7.359l-0.094-0.001c-23.040 0-29.76 0-88 0s-64 0-88 0c-14.375 0.141-28.105 2.709-40.863 7.312l0.863-0.272c-9.771 3.757-18.097 9.307-24.948 16.308l-0.012 0.012c-7.212 6.9-12.883 15.348-16.485 24.816l-0.155 0.464c-4.63 11.973-7.327 25.827-7.36 40.306v0.014c0 23.040 0 30.080 0 88s0 64 0 88c0.115 14.284 2.805 27.906 7.627 40.471l-0.267-0.791c3.584 9.834 9.163 18.193 16.29 24.932l0.030 0.028c6.829 7.316 15.301 13.009 24.836 16.498l0.444 0.142c11.949 4.771 25.792 7.582 40.28 7.68h0.040c20.16 0 27.84 0 68.48 0zM628.16 590.4c-14.492 0-26.24-11.748-26.24-26.24s11.748-26.24 26.24-26.24c14.492 0 26.24 11.748 26.24 26.24v0c0 14.492-11.748 26.24-26.24 26.24v0zM512 558.4c-61.676-0.004-111.673-50.003-111.673-111.68 0-61.679 50.001-111.68 111.68-111.68s111.68 50.001 111.68 111.68c0 0.45-0.003 0.899-0.008 1.348l0.001-0.068c0 61.679-50.001 111.68-111.68 111.68v0zM512 519.36c40.113-0.006 72.629-32.526 72.629-72.64 0-40.118-32.522-72.64-72.64-72.64s-72.64 32.522-72.64 72.64c0 0.45 0.004 0.899 0.012 1.347l-0.001-0.067c0 40.118 32.522 72.64 72.64 72.64v0z" />
<glyph unicode="&#xe907;" glyph-name="sxp_worldwide40" data-tags="sxp_worldwide40" d="M1024 448c-0.318 282.53-229.426 511.443-512 511.443-209.702 0-389.96-126.070-469.114-306.554l-1.286-3.289-3.84-9.6c-23.636-56.811-37.363-122.802-37.363-192 0-282.63 229.004-511.774 511.582-512h0.022c282.77 0 512 229.23 512 512v0zM943.68 672c34.4-64.978 54.595-142.039 54.595-223.818 0-96.464-28.099-186.365-76.559-261.964l1.164 1.942 5.12-5.12h-18.56l2.24 3.84-25.28 24.96v64c0.28 0.861 0.442 1.852 0.442 2.88s-0.162 2.019-0.461 2.948l0.019-0.068-69.12 134.4v64c0.001 0.072 0.002 0.156 0.002 0.241 0 4.362-2.129 8.227-5.405 10.613l-0.038 0.026-51.84 34.24c-2.133 1.369-4.737 2.183-7.531 2.183-0.959 0-1.895-0.096-2.8-0.278l0.090 0.015-64-16.32h-1.6l-108.16 49.28v1.92l-16 104.96v1.6l43.2 41.92h90.88l29.44-44.48c2.002-2.842 5.044-4.836 8.563-5.429l0.077-0.011 103.040-17.28c0.962-0.224 2.066-0.352 3.2-0.352s2.238 0.128 3.299 0.371l-0.099-0.019 98.56 32zM736 879.68c43.156-23.012 80.298-50.152 113.117-81.751l-0.157 0.151 4.16-3.84-33.92-22.72h-1.92l-78.4 16-50.88 16.96c-1.106 0.226-2.378 0.356-3.68 0.356s-2.574-0.13-3.803-0.377l0.123 0.021-64-16.32-32 10.88 24 48h61.12c0.859 0.834 1.602 1.781 2.206 2.818l0.034 0.062 61.12 30.4zM65.92 640c50.745 114.648 140.876 204.156 252.851 252.86l3.149 1.22 43.52-28.8c1.379-0.866 2.985-1.53 4.701-1.902l0.099-0.018 88.64-15.040-10.24-32-0.64 2.88-43.84-14.72c-3.034-1.001-5.494-3.045-7.008-5.699l-0.032-0.061-49.92-83.52-80.96-48.64-117.44-16.64c-6.073-1.077-10.659-6.212-10.879-12.457l-0.001-0.023v-51.84c0.060-3.456 1.386-6.591 3.531-8.972l-0.011 0.012 32-30.4v-40l-80.64 53.12-27.2 80.64zM273.6 320l-79.36 16v1.6l-31.040 62.4v43.84l70.080 68.16 26.56-53.12c1.887-4.185 6.022-7.046 10.826-7.046 0.132 0 0.263 0.002 0.393 0.006h112.941v-1.6l47.040-78.4c2.218-3.667 6.184-6.081 10.715-6.081 0.058 0 0.116 0 0.174 0.001h53.431l-13.44-66.88-64-64c-2.27-2.438-3.706-5.68-3.839-9.254l-0.001-0.026v-46.080l-62.4-47.040c-3.115-2.231-5.12-5.839-5.12-9.915 0-0.002 0-0.004 0-0.005v0-68.48l-28.8 9.6-32 77.44v168.96c0.001 0.060 0.002 0.131 0.002 0.202 0 6.101-4.378 11.18-10.164 12.266l-0.077 0.012zM512-38.4c-0.853-0.005-1.861-0.009-2.869-0.009-108.815 0-209.207 36.065-289.875 96.893l1.225-0.884c-118.558 90.064-194.329 231.136-194.329 389.905 0 50.4 7.635 99.016 21.812 144.755l-0.924-3.46 4.16 13.44 18.88-56.32c0.843-2.682 2.536-4.893 4.757-6.373l0.043-0.027 90.24-59.52-23.68-23.36c-2.134-2.369-3.46-5.504-3.52-8.948v-51.852c-0.226-0.816-0.356-1.753-0.356-2.72s0.13-1.904 0.374-2.794l-0.017 0.074 35.84-70.4c1.698-3.41 4.816-5.897 8.558-6.705l0.082-0.015 76.16-15.040v-161.92c-0.085-0.672-0.133-1.451-0.133-2.24s0.048-1.568 0.143-2.332l-0.009 0.092 34.56-86.080c1.277-3.529 4.083-6.23 7.596-7.337l0.084-0.023 51.84-17.28c0.576-0.149 1.238-0.234 1.92-0.234s1.344 0.085 1.975 0.246l-0.055-0.012c0.001 0 0.003 0 0.004 0 6.957 0 12.617 5.55 12.796 12.463v81.937l64 46.72c3.051 2.419 5.019 6.090 5.12 10.224v47.376l64 64c1.843 1.73 3.114 4.049 3.512 6.656l0.008 0.064 17.28 86.080c0.126 0.682 0.198 1.467 0.198 2.268 0 6.181-4.274 11.364-10.028 12.754l-0.090 0.018h-64l-1.28 1.92-46.72 78.080c-2.218 3.667-6.184 6.081-10.715 6.081-0.058 0-0.116 0-0.174-0.001h-110.711l-1.6 2.24-30.080 60.16c-1.778 3.59-5.178 6.143-9.216 6.713l-0.064 0.007c-0.609 0.105-1.31 0.165-2.025 0.165-3.461 0-6.593-1.409-8.854-3.685l-0.001-0.001-30.080-31.36v39.36c-0.013 3.521-1.482 6.695-3.836 8.956l-0.004 0.004-30.4 32v33.92l109.76 15.68h4.8l86.080 51.84c1.701 1.063 3.097 2.459 4.129 4.106l0.031 0.054 47.68 83.52h1.6l45.76 15.36c3.858 1.165 6.835 4.142 7.978 7.916l0.022 0.084 17.28 51.84c0.387 1.167 0.61 2.51 0.61 3.905 0 5.568-3.556 10.306-8.521 12.067l-0.090 0.028h-0.64l-101.12 17.28-26.88 17.92 8.64 2.88c44.901 15.017 96.601 23.681 150.324 23.681 0.364 0 0.728 0 1.093-0.001h-0.057c0.158 0 0.344 0 0.531 0 66.165 0 129.225-13.29 186.658-37.345l-3.189 1.185 9.28-3.84-42.24-20.48h-64c-0.026 0-0.058 0-0.089 0-4.969 0-9.276-2.831-11.397-6.968l-0.034-0.072-35.2-68.8c-0.874-1.686-1.387-3.681-1.387-5.796 0-5.011 2.879-9.349 7.073-11.451l0.074-0.034 51.52-17.28c1.055-0.305 2.267-0.481 3.52-0.481s2.465 0.176 3.613 0.504l-0.093-0.023 64 16 47.36-16 86.080-17.28c0.766-0.167 1.646-0.263 2.549-0.263 2.635 0 5.079 0.816 7.093 2.21l-0.042-0.027 42.56 28.48 2.56-2.88c20.551-20.94 39.38-43.731 56.161-68.045l1.119-1.715 2.88-4.8-90.88-30.080-93.44 15.68-30.4 45.76c-2.599 3.377-6.642 5.533-11.189 5.533-0.568 0-1.128-0.034-1.678-0.099l0.067 0.006h-103.36c-3.514-0.052-6.676-1.511-8.958-3.838l-51.522-51.522c-2.413-2.331-3.911-5.596-3.911-9.21 0-0.475 0.026-0.945 0.076-1.407l-0.005 0.057 17.28-120.64c0.682-4.493 3.617-8.171 7.597-9.888l0.083-0.032 120.32-51.52c1.227-0.54 2.657-0.854 4.16-0.854s2.933 0.314 4.228 0.88l-0.068-0.026 64 15.68h1.92l39.36-26.56v-62.4c-0.214-0.865-0.337-1.858-0.337-2.88s0.123-2.015 0.354-2.965l-0.018 0.085 68.16-136.96v-64c0-0.041-0.001-0.090-0.001-0.138 0-3.58 1.47-6.817 3.839-9.14l38.722-38.722-2.56-3.2c-88.773-118.985-229.161-195.202-387.35-195.202-0.51 0-1.019 0.001-1.529 0.002h0.079z" />
<glyph unicode="&#xe908;" glyph-name="sxp_account16" data-tags="sxp_account16" d="M32-64c-17.673 0-32 14.327-32 32v0c-0.010 1.208-0.016 2.635-0.016 4.063 0 148.156 61.281 282 159.879 377.565l0.136 0.131c5.798 5.719 13.767 9.252 22.56 9.252 17.746 0 32.132-14.386 32.132-32.132 0-8.952-3.661-17.050-9.568-22.876l-0.004-0.004c-87.085-84.548-141.127-202.718-141.127-333.511 0-0.875 0.002-1.75 0.007-2.623l-0.001 0.134c0-17.673-14.327-32-32-32v0zM992-64c-17.673 0-32 14.327-32 32v0c0.002 0.515 0.003 1.125 0.003 1.736 0 199.667-126.291 369.838-303.35 434.99l-3.213 1.035c-40.76-22.622-89.385-35.938-141.12-35.938-162.946 0-295.040 132.094-295.040 295.040s132.094 295.040 295.040 295.040c162.946 0 295.040-132.094 295.040-295.040 0-0.078 0-0.156 0-0.234v0.012c-0.579-21.288-3.23-41.639-7.762-61.269l0.402 2.069c-3.092-15.064-16.242-26.234-32-26.234-18.023 0-32.634 14.611-32.634 32.634 0 2.265 0.231 4.476 0.67 6.611l-0.036-0.211c3.052 13.935 4.8 29.941 4.8 46.356 0 0.015 0 0.031 0 0.046v-0.002c-0.147 127.312-103.387 230.463-230.72 230.463-127.423 0-230.72-103.297-230.72-230.72s103.297-230.72 230.72-230.72c44.503 0 86.063 12.6 121.307 34.427l-0.987-0.569c4.821 3.065 10.695 4.885 16.993 4.885 3.298 0 6.48-0.499 9.473-1.425l-0.227 0.060c214.814-69.823 367.361-268.231 367.361-502.268 0-0.271 0-0.543-0.001-0.814v0.042c0-17.673-14.327-32-32-32v0z" />
<glyph unicode="&#xe909;" glyph-name="sxp_account24" data-tags="sxp_account24" d="M21.44-64c-11.841 0-21.44 9.599-21.44 21.44v0c-0.009 1.15-0.014 2.509-0.014 3.869 0 169.179 80.004 319.672 204.242 415.71l1.212 0.901c2.716 1.363 5.919 2.162 9.308 2.162 11.664 0 21.12-9.456 21.12-21.12 0-4.942-1.698-9.488-4.541-13.086l0.034 0.044c-115.3-89.267-188.813-227.712-188.813-383.327 0-1.249 0.005-2.498 0.014-3.745l-0.001 0.192c0.056-0.575 0.087-1.244 0.087-1.92 0-11.664-9.456-21.12-21.12-21.12-0.031 0-0.061 0-0.092 0h0.005zM1002.56-64c-11.703 0.18-21.12 9.709-21.12 21.438 0 0.001 0 0.002 0 0.003v0c0 0.209 0.001 0.458 0.001 0.706 0 210.835-134.675 390.215-322.691 456.808l-3.389 1.047c-41.213-23.792-90.647-37.829-143.36-37.829-160.472 0-290.56 130.088-290.56 290.56s130.088 290.56 290.56 290.56c160.472 0 290.56-130.088 290.56-290.56 0-0.088 0-0.177 0-0.265v0.014c0-0.181 0.001-0.395 0.001-0.61 0-40.6-8.477-79.221-23.756-114.188l0.716 1.838c-3.662-6.881-10.788-11.486-18.989-11.486-11.841 0-21.44 9.599-21.44 21.44 0 2.39 0.391 4.69 1.113 6.837l-0.044-0.151c12.34 28.177 19.52 61.016 19.52 95.531 0 0.165 0 0.33 0 0.495v-0.026c0 0.109 0 0.237 0 0.366 0 136.967-111.033 248-248 248s-248-111.033-248-248c0-136.967 111.033-248 248-248 48.078 0 92.962 13.681 130.968 37.363l-1.049-0.609c3.26 1.958 7.193 3.116 11.397 3.116 2.21 0 4.345-0.32 6.362-0.916l-0.158 0.040c213.498-70.716 364.8-268.529 364.8-501.68 0-0.14 0-0.281 0-0.421v0.021c0-11.841-9.599-21.44-21.44-21.44v0z" />
<glyph unicode="&#xe90a;" glyph-name="sxp_account32" data-tags="sxp_account32" d="M16-64c-8.837 0-16 7.163-16 16v0c-0.009 1.151-0.014 2.512-0.014 3.873 0 169.274 79.996 319.864 204.246 416.028l1.208 0.899c2.516 1.726 5.627 2.757 8.979 2.757 8.837 0 16-7.163 16-16 0-4.791-2.105-9.089-5.441-12.022l-0.018-0.015c-117.843-91.278-192.973-232.807-192.973-391.884 0-1.278 0.005-2.555 0.015-3.831l-0.001 0.195c0-8.837-7.163-16-16-16v0zM1008-64c-8.837 0-16 7.163-16 16v0c0.003 0.603 0.004 1.316 0.004 2.030 0 216.358-138.798 400.299-332.21 467.637l-3.474 1.053c-41.407-24.406-91.226-38.824-144.414-38.824-159.058 0-288 128.942-288 288s128.942 288 288 288c159.058 0 288-128.942 288-288 0-40.406-8.321-78.868-23.343-113.767l0.717 1.871c-2.359-5.862-7.998-9.924-14.585-9.924-2.247 0-4.383 0.473-6.315 1.324l0.1-0.039c-5.88 2.454-9.938 8.157-9.938 14.807 0 2.282 0.478 4.452 1.338 6.416l-0.040-0.103c12.745 29.102 20.161 63.020 20.161 98.669 0 0.299-0.001 0.598-0.002 0.897v-0.046c-0.092 141.316-114.672 255.839-256 255.839-141.385 0-256-114.615-256-256s114.615-256 256-256c49.617 0 95.937 14.115 135.163 38.55l-1.083-0.629c2.292 1.543 5.115 2.464 8.152 2.464 1.782 0 3.489-0.317 5.070-0.896l-0.102 0.033c213.486-70.605 364.803-268.356 364.803-501.448 0-0.672-0.001-1.344-0.004-2.016v0.105c0-8.837-7.163-16-16-16v0z" />
<glyph unicode="&#xe90b;" glyph-name="sxp_cart16" data-tags="sxp_cart16" d="M864-64c-53.019 0-96 42.981-96 96s42.981 96 96 96c53.019 0 96-42.981 96-96v0c0-53.019-42.981-96-96-96v0zM864 64c-17.673 0-32-14.327-32-32s14.327-32 32-32c17.673 0 32 14.327 32 32v0c0 17.673-14.327 32-32 32v0zM480-64c-53.019 0-96 42.981-96 96s42.981 96 96 96c53.019 0 96-42.981 96-96v0c0-53.019-42.981-96-96-96v0zM480 64c-17.673 0-32-14.327-32-32s14.327-32 32-32c17.673 0 32 14.327 32 32v0c0 17.673-14.327 32-32 32v0zM808 320h-264c-17.673 0-32 14.327-32 32s14.327 32 32 32v0h264c0.162-0.001 0.354-0.002 0.545-0.002 44.223 0 81.221 30.933 90.537 72.342l0.117 0.62 53.12 247.040h-700.48c-17.673 0-32 14.327-32 32s14.327 32 32 32v0h740.16c0.213 0.005 0.464 0.008 0.715 0.008 17.673 0 32-14.327 32-32 0-2.383-0.261-4.706-0.755-6.94l0.039 0.212-61.76-286.080c-15.84-70.957-78.269-123.206-152.901-123.206-0.471 0-0.941 0.002-1.41 0.006h0.072zM928 192h-460.16c-0.018 0-0.040 0-0.062 0-50.691 0-93.735 32.74-109.139 78.228l-0.239 0.812-182.4 588.16c-6.576 20.915-25.424 35.971-47.906 36.797l-0.094 0.003h-96c-17.673 0-32 14.327-32 32s14.327 32 32 32v0h96c51.352-0.32 94.663-34.378 108.907-81.109l0.213-0.811 182.080-587.52c7.119-20.28 26.102-34.56 48.421-34.56 0.077 0 0.154 0 0.231 0.001h460.148c17.673 0 32-14.327 32-32s-14.327-32-32-32v0z" />
<glyph unicode="&#xe90c;" glyph-name="sxp_cart24" data-tags="sxp_cart24" d="M832-64c-0.095 0-0.207 0-0.32 0-59.028 0-106.88 47.852-106.88 106.88s47.852 106.88 106.88 106.88c59.028 0 106.88-47.852 106.88-106.88 0-0.112 0-0.225-0.001-0.337v0.017c-0.181-58.778-47.782-106.379-106.543-106.56h-0.017zM832 106.56c-35.346 0-64-28.654-64-64s28.654-64 64-64c35.346 0 64 28.654 64 64v0c0 35.346-28.654 64-64 64v0zM490.56-64c-59.028 0-106.88 47.852-106.88 106.88s47.852 106.88 106.88 106.88c59.028 0 106.88-47.852 106.88-106.88 0-0.113 0-0.225-0.001-0.338v0.018c-0.182-58.89-47.964-106.56-106.88-106.56 0 0 0 0 0 0v0zM490.56 106.56c-35.346 0-64-28.654-64-64s28.654-64 64-64c35.346 0 64 28.654 64 64v0c0 35.346-28.654 64-64 64v0zM814.72 320h-281.28c-11.841 0-21.44 9.599-21.44 21.44v0c0 0.001 0 0.002 0 0.002 0 11.664 9.456 21.12 21.12 21.12 0.113 0 0.225-0.001 0.337-0.003h281.263c0.065 0 0.141 0 0.218 0 50.624 0 92.979 35.409 103.648 82.811l0.134 0.71 57.28 257.92h-729.92c-0.191-0.006-0.415-0.010-0.64-0.010-11.841 0-21.44 9.599-21.44 21.44 0 0.003 0 0.007 0 0.010v-0.001c0 11.664 9.456 21.12 21.12 21.12v0h757.44c0.119 0.002 0.259 0.004 0.399 0.004 6.594 0 12.46-3.116 16.206-7.957l0.035-0.047c2.963-3.487 4.765-8.041 4.765-13.017 0-1.741-0.221-3.431-0.636-5.043l0.031 0.14-64-283.52c-14.801-67.339-73.904-117.006-144.627-117.12h-0.013zM917.44 192h-450.56c-0.067 0-0.147 0-0.227 0-46.773 0-86.487 30.226-100.673 72.211l-0.22 0.749-186.56 607.040c-8.206 26.474-32.447 45.38-61.113 45.44h-96.007c-0.287-0.014-0.622-0.022-0.96-0.022-11.664 0-21.12 9.456-21.12 21.12 0 0.008 0 0.015 0 0.023v-0.001c0 11.841 9.599 21.44 21.44 21.44v0h96c0.345 0.004 0.752 0.006 1.159 0.006 47.777 0 88.165-31.632 101.365-75.096l0.196-0.75 186.24-606.080c8.789-25.469 32.526-43.45 60.472-43.52h450.568c11.664 0 21.12-9.456 21.12-21.12v0c0-0.001 0-0.002 0-0.002 0-11.728-9.417-21.257-21.103-21.437h-0.017z" />
<glyph unicode="&#xe90d;" glyph-name="sxp_cart32" data-tags="sxp_cart32" d="M832-64c-53.019 0-96 42.981-96 96s42.981 96 96 96c53.019 0 96-42.981 96-96v0c0-53.019-42.981-96-96-96v0zM832 96c-35.346 0-64-28.654-64-64s28.654-64 64-64c35.346 0 64 28.654 64 64v0c0 35.346-28.654 64-64 64v0zM480-64c-53.019 0-96 42.981-96 96s42.981 96 96 96c53.019 0 96-42.981 96-96v0c0-53.019-42.981-96-96-96v0zM480 96c-35.346 0-64-28.654-64-64s28.654-64 64-64c35.346 0 64 28.654 64 64v0c0 35.346-28.654 64-64 64v0zM818.24 320h-322.24c-8.837 0-16 7.163-16 16s7.163 16 16 16v0h322.24c0.358-0.004 0.78-0.007 1.204-0.007 53.053 0 97.416 37.206 108.42 86.949l0.137 0.737 59.84 264.32h-742.080c-8.837 0-16 7.163-16 16s7.163 16 16 16v0h762.24c8.873-0.181 15.997-7.417 15.997-16.317 0-1.134-0.116-2.24-0.336-3.309l0.018 0.105-64-283.84c-14.599-64.895-71.739-112.647-140.031-112.647-0.495 0-0.99 0.003-1.484 0.008l0.076-0.001zM912 192h-437.76c-0.112 0-0.245-0.001-0.378-0.001-49.148 0-90.859 31.838-105.634 76.015l-0.228 0.786-186.88 608c-8.594 29.622-35.372 50.952-67.171 51.2h-97.949c-8.837 0-16 7.163-16 16v0c0 8.837 7.163 16 16 16v0h97.92c0.099 0 0.217 0.001 0.334 0.001 45.757 0 84.438-30.295 97.078-71.922l0.188-0.718 186.88-608c10.693-32.312 40.573-55.237 75.825-55.36h437.775c8.837 0 16-7.163 16-16s-7.163-16-16-16v0z" />
<glyph unicode="&#xe90e;" glyph-name="sxp_check16" data-tags="sxp_check16" d="M320 64h-1.92c-18.223 0.607-34.433 8.742-45.705 21.377l-0.055 0.063-256 288c-10.026 11.268-16.151 26.198-16.151 42.56 0 35.43 28.721 64.151 64.151 64.151 19.068 0 36.193-8.319 47.943-21.526l0.057-0.065 211.2-237.44 592 592c11.118 9.565 25.694 15.389 41.629 15.389 35.346 0 64-28.654 64-64 0-15.936-5.824-30.511-15.46-41.713l0.071 0.084-640-640c-11.595-11.663-27.65-18.881-45.39-18.881-0.13 0-0.26 0-0.39 0.001h0.020z" />
<glyph unicode="&#xe90f;" glyph-name="sxp_check24" data-tags="sxp_check24" d="M298.56 64h-1.6c-12.774 0.014-24.218 5.696-31.954 14.665l-0.046 0.055-256 298.88c-4.232 6.532-6.748 14.517-6.748 23.091 0 23.682 19.198 42.88 42.88 42.88 10.666 0 20.422-3.894 27.925-10.339l-0.057 0.048 225.92-264 652.16 650.24c7.47 6.48 17.288 10.429 28.029 10.429 23.682 0 42.88-19.198 42.88-42.88 0-10.741-3.949-20.559-10.474-28.082l0.045 0.053-682.56-682.56c-7.752-7.713-18.44-12.48-30.242-12.48-0.056 0-0.111 0-0.167 0h0.009z" />
<glyph unicode="&#xe910;" glyph-name="sxp_check32" data-tags="sxp_check32" d="M320 64v0c-9.267 0.119-17.567 4.159-23.336 10.533l-0.024 0.027-288 320c-4.391 5.433-7.049 12.424-7.049 20.037 0 17.673 14.327 32 32 32 8.729 0 16.641-3.495 22.414-9.161l-0.005 0.005 264-294.4 648.96 679.040c5.912 7.128 14.771 11.633 24.682 11.633 17.673 0 32-14.327 32-32 0-9.432-4.081-17.912-10.574-23.768l-0.028-0.025-672-704c-5.812-6.088-13.979-9.884-23.033-9.92h-0.007z" />
<glyph unicode="&#xe911;" glyph-name="sxp_close8" data-tags="sxp_close8" d="M64-64c-17.642 0.077-33.587 7.28-45.117 18.877l-0.003 0.003c-11.501 11.568-18.611 27.514-18.611 45.12s7.109 33.552 18.614 45.123l895.997 895.997c11.568 11.501 27.514 18.611 45.12 18.611s33.552-7.109 45.123-18.614l-0.003 0.003c11.501-11.568 18.611-27.514 18.611-45.12s-7.109-33.552-18.614-45.123l-895.997-895.997c-11.533-11.6-27.478-18.803-45.105-18.88h-0.015zM960-64c-17.642 0.077-33.587 7.28-45.117 18.877l-896.003 896.003c-11.501 11.568-18.611 27.514-18.611 45.12s7.109 33.552 18.614 45.123l-0.003-0.003c11.568 11.501 27.514 18.611 45.12 18.611s33.552-7.109 45.123-18.614l895.997-895.997c11.502-11.568 18.611-27.514 18.611-45.121 0-35.252-28.501-63.847-63.717-63.999h-0.015z" />
<glyph unicode="&#xe912;" glyph-name="sxp_phone16" data-tags="sxp_phone16" d="M889.6 194.56l-113.92 113.6c-17.332 19.324-42.235 31.556-70.002 31.999l-0.078 0.001c-27.985-0.741-52.995-12.885-70.661-31.936l-0.059-0.064-65.6-64-16 8.32c-8.171 3.772-14.885 7.401-21.359 11.383l0.879-0.503c-65.992 42.492-122.286 93.086-169.525 151.323l-1.035 1.317c-21.334 25.518-40.019 54.441-54.928 85.519l-1.072 2.481c16.96 15.68 32 32 48 47.040l17.28 17.6c19.655 17.653 31.962 43.149 31.962 71.52s-12.307 53.867-31.873 71.442l-0.089 0.078-56.64 56.32-19.2 19.52c-12.48 12.48-25.6 27.2-39.68 39.68-17.337 18.966-41.889 31.087-69.28 31.996l-0.16 0.004c-27.821-1.057-52.631-13.127-70.352-31.948l-0.048-0.052-70.4-71.36c-25.335-24.637-41.933-58.145-44.769-95.497l-0.031-0.503c-0.246-4.989-0.386-10.833-0.386-16.71 0-49.115 9.784-95.946 27.508-138.649l-0.882 2.399c40.25-101.313 94.254-188.516 160.87-264.37l-0.87 1.010c88.224-105.214 196.386-190.559 319.067-250.892l5.733-2.548c52.637-27.785 114.094-46.98 179.219-53.889l2.221-0.191h13.12c1.070-0.026 2.329-0.041 3.592-0.041 45.926 0 87.251 19.705 115.979 51.121l0.108 0.12c12.007 13.746 24.339 26.281 37.372 38.055l0.388 0.345c8.96 8.32 17.92 17.28 26.88 26.56 18.993 18.173 31.078 43.431 31.996 71.513l0.004 0.167c-0.623 28.008-12.797 53.055-31.93 70.656l-0.070 0.064zM762.56 410.56c-30.688 0.152-56.259 21.88-62.327 50.783l-0.073 0.417c-18.541 87.946-86.721 156.019-173.263 174.145l-1.457 0.255c-29.429 6.163-51.213 31.898-51.213 62.72 0 35.353 28.66 64.013 64.013 64.013 4.531 0 8.952-0.471 13.217-1.366l-0.417 0.073c138.329-28.911 245.489-135.963 274.155-271.944l0.405-2.296c0.824-3.851 1.295-8.275 1.295-12.81 0-30.821-21.786-56.553-50.799-62.637l-0.417-0.073c-3.736-0.816-8.028-1.284-12.429-1.284-0.243 0-0.486 0.001-0.728 0.004h0.037zM960 461.44c-0.161-0.001-0.352-0.002-0.543-0.002-32.413 0-59.199 24.096-63.421 55.353l-0.036 0.33c-22.978 163.825-151.055 291.902-312.935 314.656l-1.945 0.224c-31.884 4.263-56.219 31.29-56.219 64 0 35.644 28.895 64.539 64.539 64.539 2.933 0 5.821-0.196 8.651-0.575l-0.331 0.036c222.053-30.498 395.742-204.187 425.948-423.651l0.292-2.589c0.339-2.474 0.532-5.333 0.532-8.237 0-32.374-24.038-59.135-55.24-63.405l-0.333-0.037z" />
<glyph unicode="&#xe913;" glyph-name="sxp_phone24" data-tags="sxp_phone24" d="M889.6 194.56l-113.92 113.6c-17.332 19.324-42.235 31.556-70.002 31.999l-0.078 0.001c-27.985-0.741-52.995-12.885-70.661-31.936l-0.059-0.064-65.6-64-16 8c-7.36 3.84-14.4 7.36-20.48 11.2-66.035 42.425-122.339 93.028-169.523 151.317l-1.037 1.323c-21.55 25.373-40.252 54.213-54.985 85.3l-1.015 2.38c16.96 15.68 32 32 48 47.040l17.28 17.6c20.225 17.36 32.958 42.953 32.958 71.52s-12.732 54.16-32.832 71.415l-0.126 0.105-56.64 56.64-19.2 19.52c-12.48 12.48-25.6 27.2-39.68 39.68-17.337 18.966-41.889 31.087-69.28 31.996l-0.16 0.004c-27.821-1.057-52.631-13.127-70.352-31.948l-0.048-0.052-70.4-71.040c-25.217-24.715-41.778-58.178-44.766-95.469l-0.034-0.531c-0.262-5.115-0.411-11.106-0.411-17.131 0-49.112 9.914-95.908 27.849-138.497l-0.878 2.349c39.564-101.314 93.074-188.552 159.295-264.407l-0.895 1.047c88.562-105.329 197.162-190.699 320.315-250.895l5.765-2.545c52.652-27.639 114.085-46.817 179.154-53.879l2.286-0.201h13.12c1.070-0.026 2.329-0.041 3.592-0.041 45.926 0 87.251 19.705 115.979 51.121l0.108 0.12c12.007 13.746 24.339 26.281 37.372 38.055l0.388 0.345c8.96 8.32 17.92 17.28 26.88 26.56 18.949 18.081 31.026 43.221 31.995 71.184l0.005 0.176c-0.57 28.118-12.753 53.283-31.932 70.978l-0.068 0.062zM784 453.44c-0.056 0-0.122 0-0.187 0-20.384 0-37.396 14.439-41.365 33.647l-0.047 0.273c-19.91 96.966-95.034 172.090-190.418 191.728l-1.582 0.272c-19.61 4.087-34.132 21.227-34.132 41.76 0 23.534 19.078 42.612 42.612 42.612 3.002 0 5.931-0.31 8.757-0.901l-0.277 0.048c129.674-26.66 230.299-126.64 257.532-253.837l0.388-2.163c0.587-2.661 0.924-5.717 0.924-8.852 0-20.149-13.897-37.052-32.63-41.647l-0.294-0.061c-2.675-1.245-5.786-2.244-9.038-2.843l-0.242-0.037zM981.44 504c-21.545 0.13-39.314 16.131-42.214 36.894l-0.026 0.226c-24.366 173.821-160.259 309.714-332.017 333.843l-2.063 0.237c-21.088 2.864-37.168 20.754-37.168 42.4 0 23.62 19.148 42.768 42.768 42.768 1.975 0 3.918-0.134 5.821-0.393l-0.221 0.025c212.306-29.334 378.347-195.375 407.398-405.193l0.282-2.487c0.226-1.653 0.355-3.563 0.355-5.504 0-21.663-16.064-39.574-36.93-42.47l-0.225-0.026z" />
<glyph unicode="&#xe914;" glyph-name="sxp_phone32" data-tags="sxp_phone32" d="M919.36 203.2l-117.76 116.8c-18.105 19.457-43.754 31.683-72.263 31.999l-0.057 0.001c-28.844-0.433-54.761-12.615-73.242-31.96l-0.038-0.040-67.84-67.2-16.32 8.32c-7.68 3.84-15.040 7.68-21.44 11.52-68.309 44.51-126.528 97.537-175.185 158.528l-1.135 1.472c-21.907 26.388-41.218 56.241-56.771 88.258l-1.149 2.622c17.6 16 33.92 32 49.92 48.64 6.080 5.76 11.84 12.16 17.92 17.92 20.793 18 33.869 44.433 33.869 73.92s-13.076 55.92-33.747 73.816l-0.123 0.104-58.56 59.2-19.84 20.16c-12.8 13.12-26.24 26.88-40.32 39.68-18.060 19.162-43.387 31.302-71.554 31.998l-0.126 0.002c-28.684-0.748-54.402-12.857-72.934-31.973l-0.026-0.027-73.28-73.6c-26.614-25.304-44.144-59.943-47.324-98.649l-0.036-0.551c-0.297-5.581-0.466-12.115-0.466-18.689 0-50.944 10.166-99.514 28.581-143.791l-0.914 2.48c41.479-104.039 97.097-193.571 165.674-271.411l-0.874 1.011c91.219-108.769 203.127-196.937 330.072-259.137l5.928-2.623c54.681-28.869 118.54-48.758 186.215-55.809l2.265-0.191h13.76c1.146-0.029 2.496-0.046 3.85-0.046 47.348 0 89.95 20.323 119.558 52.721l0.112 0.125c11.881 13.804 24.113 26.34 37.081 38.080l0.359 0.32c9.28 8.96 18.56 17.92 27.84 27.52 19.221 18.869 31.337 44.918 31.998 73.797l0.002 0.123c-0.277 28.873-12.498 54.839-31.952 73.235l-0.048 0.045zM788.16 460.48c-0.192-0.004-0.418-0.007-0.645-0.007-15.41 0-28.276 10.893-31.318 25.398l-0.037 0.208c-21.751 104.342-102.646 185.129-205.325 206.423l-1.715 0.297c-15.064 3.092-26.234 16.242-26.234 32 0 18.023 14.611 32.634 32.634 32.634 2.265 0 4.476-0.231 6.611-0.67l-0.211 0.036c128.998-27.107 228.893-127.002 255.622-253.857l0.378-2.143c0.412-1.925 0.648-4.138 0.648-6.405 0-15.41-10.893-28.276-25.399-31.318l-0.208-0.037zM992 512c-0.081-0.001-0.176-0.001-0.271-0.001-16.207 0-29.599 12.048-31.71 27.676l-0.018 0.165c-25.91 185.34-170.819 330.25-353.965 355.908l-2.195 0.252c-15.935 1.991-28.143 15.453-28.143 31.767 0 1.55 0.11 3.073 0.323 4.564l-0.020-0.171c1.991 15.935 15.453 28.143 31.767 28.143 1.55 0 3.073-0.11 4.564-0.323l-0.171 0.020c214.48-29.617 382.223-197.36 411.555-409.328l0.285-2.512c0.193-1.32 0.303-2.844 0.303-4.393 0-16.314-12.208-29.776-27.986-31.751l-0.157-0.016z" />
<glyph unicode="&#xe915;" glyph-name="sxp_search16" data-tags="sxp_search16" d="M416 128c-229.75 0-416 186.25-416 416s186.25 416 416 416c229.75 0 416-186.25 416-416v0c0-229.75-186.25-416-416-416v0zM416 896c-194.404 0-352-157.596-352-352s157.596-352 352-352c194.404 0 352 157.596 352 352v0c0 194.404-157.596 352-352 352v0zM992-64c-0.055 0-0.12-0.001-0.185-0.001-8.791 0-16.753 3.545-22.537 9.283l0.002-0.002-304.32 304.64c-6.865 5.904-11.185 14.6-11.185 24.305 0 17.673 14.327 32 32 32 9.705 0 18.401-4.321 24.27-11.143l0.035-0.042 304.64-304.32c5.846-5.8 9.466-13.837 9.466-22.72s-3.619-16.92-9.463-22.718l-0.002-0.002c-5.782-5.736-13.744-9.281-22.535-9.281-0.065 0-0.13 0-0.195 0.001h0.010z" />
<glyph unicode="&#xe916;" glyph-name="sxp_search24" data-tags="sxp_search24" d="M384 192c-212.077 0-384 171.923-384 384s171.923 384 384 384c212.077 0 384-171.923 384-384v0c0-212.077-171.923-384-384-384v0zM384 918.080c-188.926 0-342.080-153.154-342.080-342.080s153.154-342.080 342.080-342.080c188.926 0 342.080 153.154 342.080 342.080v0c-0.182 188.852-153.228 341.898-342.063 342.080h-0.017zM1002.56-64c-5.893 0.068-11.204 2.504-15.037 6.397l-361.603 361.603c-3.849 3.849-6.23 9.167-6.23 15.040 0 11.747 9.523 21.27 21.27 21.27 5.873 0 11.191-2.381 15.040-6.23l361.6-361.6c3.966-3.794 6.432-9.129 6.432-15.040s-2.466-11.246-6.424-15.033l-0.008-0.007c-3.836-3.896-9.147-6.332-15.027-6.4h-0.013z" />
<glyph unicode="&#xe917;" glyph-name="sxp_search32" data-tags="sxp_search32" d="M384 192c-212.077 0-384 171.923-384 384s171.923 384 384 384c212.077 0 384-171.923 384-384v0c0-212.077-171.923-384-384-384v0zM384 928c-194.404 0-352-157.596-352-352s157.596-352 352-352c194.404 0 352 157.596 352 352v0c0 194.404-157.596 352-352 352v0zM1007.36-64c-0.055-0.001-0.119-0.001-0.183-0.001-4.347 0-8.263 1.844-11.008 4.792l-0.008 0.009-352 352c-2.907 2.907-4.705 6.924-4.705 11.36 0 8.873 7.193 16.065 16.065 16.065 4.436 0 8.453-1.798 11.36-4.705v0l352-352c2.988-2.809 4.849-6.787 4.849-11.2s-1.861-8.391-4.841-11.193l-0.008-0.007c-2.77-3.147-6.808-5.122-11.306-5.122-0.075 0-0.15 0.001-0.225 0.002h0.011z" />
<glyph unicode="&#xe918;" glyph-name="sxp_submit16" data-tags="sxp_submit16" d="M992 448h-960c-17.673 0-32 14.327-32 32s14.327 32 32 32v0h960c17.673 0 32-14.327 32-32s-14.327-32-32-32v0zM736 192c-0.055 0-0.12-0.001-0.185-0.001-8.791 0-16.753 3.545-22.537 9.283l0.002-0.002c-5.846 5.8-9.466 13.837-9.466 22.72s3.619 16.92 9.463 22.718l0.002 0.002 233.6 233.28-233.6 233.28c-5.815 5.815-9.411 13.847-9.411 22.72 0 17.745 14.386 32.131 32.131 32.131 8.873 0 16.905-3.596 22.72-9.411l256-256c5.846-5.8 9.466-13.837 9.466-22.72s-3.619-16.92-9.463-22.718l-256.002-256.002c-5.782-5.736-13.744-9.281-22.535-9.281-0.065 0-0.13 0-0.195 0.001h0.010z" />
<glyph unicode="&#xe919;" glyph-name="sxp_submit24" data-tags="sxp_submit24" d="M1002.56 448h-981.12c-11.841 0-21.44 9.599-21.44 21.44v0c0 0.001 0 0.002 0 0.002 0 11.664 9.456 21.12 21.12 21.12 0.113 0 0.225-0.001 0.337-0.003h981.103c0.095 0.002 0.207 0.002 0.32 0.002 11.664 0 21.12-9.456 21.12-21.12 0-0.001 0-0.002 0-0.003v0c0-11.841-9.599-21.44-21.44-21.44v0zM704 149.44c-0.064-0.001-0.139-0.001-0.214-0.001-11.664 0-21.12 9.456-21.12 21.12 0 5.886 2.407 11.209 6.291 15.039l0.002 0.002 283.52 283.84-283.52 283.52c-3.849 3.849-6.23 9.167-6.23 15.040 0 11.747 9.523 21.27 21.27 21.27 5.873 0 11.191-2.381 15.040-6.23l298.56-298.56c3.896-3.836 6.332-9.147 6.4-15.027v-0.013c0.001-0.090 0.002-0.197 0.002-0.304 0-5.81-2.458-11.047-6.391-14.726l-0.011-0.011-298.56-298.88c-3.811-3.759-9.049-6.081-14.829-6.081-0.074 0-0.149 0-0.223 0.001h0.011z" />
<glyph unicode="&#xe91a;" glyph-name="sxp_submit32" data-tags="sxp_submit32" d="M1008 448h-992c-8.837 0-16 7.163-16 16s7.163 16 16 16v0h992c8.837 0 16-7.163 16-16s-7.163-16-16-16v0zM720 160c-0.055-0.001-0.119-0.001-0.183-0.001-4.347 0-8.263 1.844-11.008 4.792l-0.008 0.009c-2.988 2.809-4.849 6.787-4.849 11.2s1.861 8.391 4.841 11.193l0.008 0.007 276.48 276.8-276.48 276.8c-2.866 2.866-4.639 6.826-4.639 11.2 0 8.748 7.091 15.839 15.839 15.839 4.374 0 8.334-1.773 11.2-4.639v0l288-288c2.988-2.809 4.849-6.787 4.849-11.2s-1.861-8.391-4.841-11.193l-0.008-0.007-288-288c-2.754-2.957-6.67-4.801-11.017-4.801-0.064 0-0.129 0-0.193 0.001h0.010z" />
<glyph unicode="&#xe91b;" glyph-name="sxp_arrow8" data-tags="sxp_arrow8" d="M512 171.84l-489.6 419.52c-17.182 11.655-28.323 31.093-28.323 53.134 0 35.346 28.654 64 64 64 18.831 0 35.763-8.133 47.474-21.079l0.049-0.055 406.4-347.2 406.4 348.48c11.76 13 28.692 21.134 47.523 21.134 35.346 0 64-28.654 64-64 0-22.041-11.141-41.479-28.1-52.99l-0.224-0.143z" />
<glyph unicode="&#xe91c;" glyph-name="sxp_arrow16" data-tags="sxp_arrow16" d="M512 180.16l-501.76 468.48c-5.751 5.784-9.305 13.757-9.305 22.56s3.555 16.776 9.307 22.562l-0.002-0.002c5.854 6.244 14.155 10.134 23.364 10.134 8.411 0 16.065-3.245 21.776-8.552l-0.020 0.018 456.64-427.52 458.24 427.52c5.855 6.245 14.156 10.135 23.365 10.135 17.673 0 32-14.327 32-32 0-10.007-4.594-18.942-11.787-24.81l-0.058-0.046z" />
<glyph unicode="&#xe91d;" glyph-name="sxp_arrow24" data-tags="sxp_arrow24" d="M512 184.96l-504.64 439.040c-4.476 3.909-7.288 9.626-7.288 16 0 11.713 9.495 21.208 21.208 21.208 5.339 0 10.217-1.973 13.945-5.229l-0.025 0.021 476.8-416 476.8 416c3.703 3.235 8.581 5.208 13.92 5.208 11.713 0 21.208-9.495 21.208-21.208 0-6.374-2.812-12.091-7.263-15.979l-0.025-0.021z" />
<glyph unicode="&#xe91e;" glyph-name="sxp_arrow32" data-tags="sxp_arrow32" d="M512 219.2l-506.24 424.64c-2.709 2.86-4.375 6.733-4.375 10.994 0 8.837 7.163 16 16 16 3.299 0 6.366-0.999 8.913-2.71l-0.057 0.036 485.76-407.36 485.76 407.36c2.49 1.675 5.556 2.674 8.855 2.674 8.837 0 16-7.163 16-16 0-4.261-1.666-8.134-4.382-11.001l0.007 0.007z" />
<glyph unicode="&#xe91f;" glyph-name="sxp_close16" data-tags="sxp_close16" d="M32-64c-0.055 0-0.12-0.001-0.185-0.001-8.791 0-16.753 3.545-22.537 9.283l0.002-0.002c-5.846 5.8-9.466 13.837-9.466 22.72s3.619 16.92 9.463 22.718l960.002 960.002c5.815 5.815 13.847 9.411 22.72 9.411 17.745 0 32.131-14.386 32.131-32.131 0-8.873-3.596-16.905-9.411-22.72l-960-960c-5.782-5.736-13.744-9.281-22.535-9.281-0.065 0-0.13 0-0.195 0.001h0.010zM992-64c-0.055 0-0.12-0.001-0.185-0.001-8.791 0-16.753 3.545-22.537 9.283l-959.998 959.998c-5.815 5.815-9.411 13.847-9.411 22.72 0 17.745 14.386 32.131 32.131 32.131 8.873 0 16.905-3.596 22.72-9.411v0l960-960c5.846-5.8 9.466-13.837 9.466-22.72s-3.619-16.92-9.463-22.718l-0.002-0.002c-5.782-5.736-13.744-9.281-22.535-9.281-0.065 0-0.13 0-0.195 0.001h0.010z" />
<glyph unicode="&#xe920;" glyph-name="sxp_close24" data-tags="sxp_close24" d="M21.44-64c-5.893 0.068-11.204 2.504-15.037 6.397l-0.003 0.003c-3.966 3.794-6.432 9.129-6.432 15.040s2.466 11.246 6.424 15.033l0.008 0.007 981.12 981.12c3.832 3.886 9.155 6.293 15.040 6.293s11.208-2.407 15.038-6.29l0.002-0.002c3.966-3.794 6.432-9.129 6.432-15.040s-2.466-11.246-6.424-15.033l-0.008-0.007-981.12-981.12c-3.836-3.896-9.147-6.332-15.027-6.4h-0.013zM1002.56-64c-5.893 0.068-11.204 2.504-15.037 6.397l-981.123 981.123c-3.966 3.794-6.432 9.129-6.432 15.040s2.466 11.246 6.424 15.033l0.008 0.007c3.832 3.886 9.155 6.293 15.040 6.293s11.208-2.407 15.038-6.29l981.122-981.122c3.966-3.794 6.432-9.129 6.432-15.040s-2.466-11.246-6.424-15.033l-0.008-0.007c-3.836-3.896-9.147-6.332-15.027-6.4h-0.013z" />
<glyph unicode="&#xe921;" glyph-name="sxp_close32" data-tags="sxp_close32" d="M16-64c-0.055-0.001-0.119-0.001-0.183-0.001-4.347 0-8.263 1.844-11.008 4.792l-0.008 0.009c-2.988 2.809-4.849 6.787-4.849 11.2s1.861 8.391 4.841 11.193l0.008 0.007 992 992c2.809 2.988 6.787 4.849 11.2 4.849s8.391-1.861 11.193-4.841l0.007-0.008c2.988-2.809 4.849-6.787 4.849-11.2s-1.861-8.391-4.841-11.193l-0.008-0.007-992-992c-2.754-2.957-6.67-4.801-11.017-4.801-0.064 0-0.129 0-0.193 0.001h0.010zM1008-64c-0.055-0.001-0.119-0.001-0.183-0.001-4.347 0-8.263 1.844-11.008 4.792l-0.008 0.009-992 992c-2.988 2.809-4.849 6.787-4.849 11.2s1.861 8.391 4.841 11.193l0.008 0.007c2.809 2.988 6.787 4.849 11.2 4.849s8.391-1.861 11.193-4.841l0.007-0.008 992-992c2.988-2.809 4.849-6.787 4.849-11.2s-1.861-8.391-4.841-11.193l-0.008-0.007c-2.754-2.957-6.67-4.801-11.017-4.801-0.064 0-0.129 0-0.193 0.001h0.010z" />
<glyph unicode="&#xe922;" glyph-name="sxp_top-label" data-tags="sxp_top-label" d="M0 642.56v-40.32h123.52v-349.76h45.44v349.76h123.52v40.32h-292.48zM689.6 448c0.231-3.723 0.363-8.075 0.363-12.458 0-51.242-18.003-98.28-48.030-135.132l0.307 0.389c-30.399-33.023-73.836-53.641-122.089-53.641-2.867 0-5.717 0.073-8.549 0.217l0.397-0.016c-3.155-0.21-6.839-0.33-10.552-0.33-48.244 0-91.757 20.258-122.495 52.733l-0.073 0.078c-30.083 37.019-48.302 84.734-48.302 136.704 0 4.030 0.11 8.034 0.326 12.010l-0.024-0.554c-0.27 4.018-0.424 8.709-0.424 13.437 0 50.987 17.905 97.793 47.771 134.472l-0.307-0.389c30.755 32.951 74.443 53.49 122.929 53.49 3.923 0 7.815-0.134 11.672-0.399l-0.521 0.029c2.765 0.164 5.999 0.257 9.254 0.257 48.257 0 91.726-20.503 122.17-53.273l0.096-0.104c28.988-36.436 46.51-83.121 46.51-133.9 0-4.792-0.156-9.548-0.463-14.262l0.034 0.642zM378.88 448c-0.293-3.903-0.461-8.454-0.461-13.044 0-40.098 12.76-77.216 34.441-107.515l-0.38 0.559c22.032-24.834 54.028-40.407 89.661-40.407 3.47 0 6.906 0.148 10.302 0.437l-0.443-0.030c2.159-0.14 4.68-0.22 7.22-0.22 35.261 0 66.932 15.372 88.676 39.781l0.104 0.119c20.391 29.602 32.569 66.234 32.569 105.711 0 5.142-0.207 10.235-0.612 15.273l0.043-0.663c0.364 4.352 0.572 9.42 0.572 14.536 0 39.184-12.185 75.522-32.972 105.432l0.4-0.608c-21.717 25.072-53.6 40.838-89.166 40.838-2.404 0-4.792-0.072-7.16-0.214l0.326 0.016c-2.279 0.153-4.94 0.24-7.622 0.24-36.183 0-68.656-15.887-90.823-41.067l-0.115-0.134c-21.805-29.971-34.883-67.512-34.883-108.107 0-3.846 0.117-7.665 0.349-11.453l-0.025 0.52zM1024 528.96c0.101-1.768 0.159-3.835 0.159-5.916 0-34.303-15.691-64.942-40.286-85.13l-0.193-0.153c-29.234-20.25-65.453-32.348-104.498-32.348-3.99 0-7.951 0.126-11.879 0.375l0.537-0.027h-45.76v-153.6h-45.44v390.4h101.12q146.24 0 146.24-113.6zM822.080 444.8h41.92c3.506-0.285 7.59-0.448 11.712-0.448 27.816 0 53.902 7.41 76.391 20.363l-0.743-0.395c16.682 13.304 27.279 33.628 27.279 56.427 0 2.667-0.145 5.301-0.428 7.893l0.028-0.321c0.131 1.565 0.205 3.386 0.205 5.225 0 21.196-9.908 40.078-25.345 52.268l-0.14 0.107c-19.605 12.295-43.433 19.587-68.964 19.587-3.546 0-7.059-0.141-10.534-0.417l0.459 0.029h-51.84z" />
<glyph unicode="&#xe923;" glyph-name="sxp_logged16" data-tags="sxp_logged16" d="M32-64c-17.673 0-32 14.327-32 32v0c-0.010 1.208-0.016 2.635-0.016 4.063 0 148.156 61.281 282 159.879 377.565l0.136 0.131c5.798 5.719 13.767 9.252 22.56 9.252 17.746 0 32.132-14.386 32.132-32.132 0-8.952-3.661-17.050-9.568-22.876l-0.004-0.004c-87.085-84.548-141.127-202.718-141.127-333.511 0-0.875 0.002-1.75 0.007-2.623l-0.001 0.134c0-17.673-14.327-32-32-32v0zM992-64c-17.673 0-32 14.327-32 32v0c0.002 0.515 0.003 1.125 0.003 1.736 0 199.667-126.291 369.838-303.35 434.99l-3.213 1.035c-40.76-22.622-89.385-35.938-141.12-35.938-162.946 0-295.040 132.094-295.040 295.040s132.094 295.040 295.040 295.040c162.946 0 295.040-132.094 295.040-295.040 0-0.078 0-0.156 0-0.234v0.012c-0.579-21.288-3.23-41.639-7.762-61.269l0.402 2.069c-3.092-15.064-16.242-26.234-32-26.234-18.023 0-32.634 14.611-32.634 32.634 0 2.265 0.231 4.476 0.67 6.611l-0.036-0.211c3.052 13.935 4.8 29.941 4.8 46.356 0 0.015 0 0.031 0 0.046v-0.002c-0.147 127.312-103.387 230.463-230.72 230.463-127.423 0-230.72-103.297-230.72-230.72s103.297-230.72 230.72-230.72c44.503 0 86.063 12.6 121.307 34.427l-0.987-0.569c4.821 3.065 10.695 4.885 16.993 4.885 3.298 0 6.48-0.499 9.473-1.425l-0.227 0.060c214.814-69.823 367.361-268.231 367.361-502.268 0-0.271 0-0.543-0.001-0.814v0.042c0-17.673-14.327-32-32-32v0zM439.040-64v0c-9.193 0.301-17.364 4.434-23.010 10.845l-0.030 0.035-98.56 111.68c-5.26 5.685-8.486 13.318-8.486 21.705 0 17.673 14.327 32 32 32 9.98 0 18.893-4.569 24.761-11.729l0.045-0.056 74.56-85.44 219.2 224c5.784 5.751 13.757 9.305 22.56 9.305s16.776-3.555 22.562-9.307l-0.002 0.002c6.156-5.844 9.986-14.087 9.986-23.225 0-9.444-4.091-17.932-10.597-23.79l-0.029-0.026-242.24-246.4c-5.782-5.896-13.819-9.562-22.713-9.6h-0.007z" />
<glyph unicode="&#xe924;" glyph-name="sxp_logged24" data-tags="sxp_logged24" d="M21.44-64c-11.841 0-21.44 9.599-21.44 21.44v0c-0.009 1.15-0.014 2.509-0.014 3.869 0 169.179 80.004 319.672 204.242 415.71l1.212 0.901c2.716 1.363 5.919 2.162 9.308 2.162 11.664 0 21.12-9.456 21.12-21.12 0-4.942-1.698-9.488-4.541-13.086l0.034 0.044c-115.3-89.267-188.813-227.712-188.813-383.327 0-1.249 0.005-2.498 0.014-3.745l-0.001 0.192c0.056-0.575 0.087-1.244 0.087-1.92 0-11.664-9.456-21.12-21.12-21.12-0.031 0-0.061 0-0.092 0h0.005zM1002.56-64c-11.703 0.18-21.12 9.709-21.12 21.438 0 0.001 0 0.002 0 0.003v0c0 0.209 0.001 0.458 0.001 0.706 0 210.835-134.675 390.215-322.691 456.808l-3.389 1.047c-41.213-23.792-90.647-37.829-143.36-37.829-160.472 0-290.56 130.088-290.56 290.56s130.088 290.56 290.56 290.56c160.472 0 290.56-130.088 290.56-290.56 0-0.088 0-0.177 0-0.265v0.014c0-0.181 0.001-0.395 0.001-0.61 0-40.6-8.477-79.221-23.756-114.188l0.716 1.838c-3.662-6.881-10.788-11.486-18.989-11.486-11.841 0-21.44 9.599-21.44 21.44 0 2.39 0.391 4.69 1.113 6.837l-0.044-0.151c12.34 28.177 19.52 61.016 19.52 95.531 0 0.165 0 0.33 0 0.495v-0.026c0 0.109 0 0.237 0 0.366 0 136.967-111.033 248-248 248s-248-111.033-248-248c0-136.967 111.033-248 248-248 48.078 0 92.962 13.681 130.968 37.363l-1.049-0.609c3.26 1.958 7.193 3.116 11.397 3.116 2.21 0 4.345-0.32 6.362-0.916l-0.158 0.040c213.498-70.716 364.8-268.529 364.8-501.68 0-0.14 0-0.281 0-0.421v0.021c0-11.841-9.599-21.44-21.44-21.44v0zM429.76-64v0c-6.14 0.243-11.584 3.032-15.338 7.335l-0.022 0.025-110.4 125.76c-3.235 3.703-5.208 8.581-5.208 13.92 0 11.713 9.495 21.208 21.208 21.208 6.374 0 12.091-2.812 15.979-7.263l0.021-0.025 96-108.16 257.92 262.72c4.001 4.293 9.688 6.97 16 6.97 12.067 0 21.85-9.782 21.85-21.85 0-5.755-2.225-10.991-5.862-14.893l0.012 0.013-277.12-279.36c-3.69-3.944-8.926-6.402-14.736-6.402-0.107 0-0.214 0.001-0.32 0.002h0.016z" />
<glyph unicode="&#xe925;" glyph-name="sxp_logged32" data-tags="sxp_logged32" d="M16-64c-8.837 0-16 7.163-16 16v0c-0.009 1.151-0.014 2.512-0.014 3.873 0 169.274 79.996 319.864 204.246 416.028l1.208 0.899c2.516 1.726 5.627 2.757 8.979 2.757 8.837 0 16-7.163 16-16 0-4.791-2.105-9.089-5.441-12.022l-0.018-0.015c-117.843-91.278-192.973-232.807-192.973-391.884 0-1.278 0.005-2.555 0.015-3.831l-0.001 0.195c0-8.837-7.163-16-16-16v0zM1008-64c-8.837 0-16 7.163-16 16v0c0.003 0.603 0.004 1.316 0.004 2.030 0 216.358-138.798 400.299-332.21 467.637l-3.474 1.053c-41.407-24.406-91.226-38.824-144.414-38.824-159.058 0-288 128.942-288 288s128.942 288 288 288c159.058 0 288-128.942 288-288 0-40.406-8.321-78.868-23.343-113.767l0.717 1.871c-2.354-6.090-8.163-10.331-14.962-10.331-8.837 0-16 7.163-16 16 0 2.473 0.561 4.816 1.563 6.907l-0.042-0.096c12.745 29.102 20.161 63.020 20.161 98.669 0 0.299-0.001 0.598-0.002 0.897v-0.046c-0.092 141.316-114.672 255.839-256 255.839-141.385 0-256-114.615-256-256s114.615-256 256-256c49.617 0 95.937 14.115 135.163 38.55l-1.083-0.629c2.292 1.543 5.115 2.464 8.152 2.464 1.782 0 3.489-0.317 5.070-0.896l-0.102 0.033c213.486-70.605 364.803-268.356 364.803-501.448 0-0.672-0.001-1.344-0.004-2.016v0.105c0-8.837-7.163-16-16-16v0zM436.48-64v0c-4.605 0.108-8.704 2.186-11.503 5.42l-0.017 0.020-100.8 115.2c-2.451 2.811-3.945 6.511-3.945 10.56 0 8.895 7.211 16.105 16.105 16.105 4.845 0 9.191-2.14 12.144-5.526l0.016-0.019 89.28-102.080 239.040 243.52c2.923 3.004 7.004 4.867 11.52 4.867 8.874 0 16.067-7.193 16.067-16.067 0-4.357-1.734-8.309-4.551-11.204l0.004 0.004-251.52-256c-2.807-2.968-6.772-4.815-11.168-4.815-0.236 0-0.471 0.005-0.705 0.016l0.033-0.001z" />
<glyph unicode="&#xe926;" glyph-name="sxp_burger16" data-tags="sxp_burger16" d="M992 768h-960c-17.673 0-32 14.327-32 32s14.327 32 32 32v0h960c17.673 0 32-14.327 32-32s-14.327-32-32-32v0zM992 448h-960c-17.673 0-32 14.327-32 32s14.327 32 32 32v0h960c17.673 0 32-14.327 32-32s-14.327-32-32-32v0zM672 128h-640c-17.673 0-32 14.327-32 32s14.327 32 32 32v0h640c17.673 0 32-14.327 32-32s-14.327-32-32-32v0z" />
<glyph unicode="&#xe927;" glyph-name="sxp_burger24" data-tags="sxp_burger24" d="M1002.56 704h-981.12c-11.841 0-21.44 9.599-21.44 21.44v0c0 0.001 0 0.002 0 0.002 0 11.664 9.456 21.12 21.12 21.12 0.113 0 0.225-0.001 0.337-0.003h981.103c0.095 0.002 0.207 0.002 0.32 0.002 11.664 0 21.12-9.456 21.12-21.12 0-0.001 0-0.002 0-0.003v0c0-11.841-9.599-21.44-21.44-21.44v0zM1002.56 405.44h-981.12c-0.095-0.002-0.207-0.002-0.32-0.002-11.664 0-21.12 9.456-21.12 21.12 0 0.001 0 0.002 0 0.003v0c0 11.841 9.599 21.44 21.44 21.44v0h981.12c11.841 0 21.44-9.599 21.44-21.44v0c0-0.001 0-0.002 0-0.002 0-11.664-9.456-21.12-21.12-21.12-0.113 0-0.225 0.001-0.337 0.003h0.017zM661.44 106.56h-640c-11.841 0-21.44 9.599-21.44 21.44s9.599 21.44 21.44 21.44h640c11.841 0 21.44-9.599 21.44-21.44s-9.599-21.44-21.44-21.44v0z" />
<glyph unicode="&#xe928;" glyph-name="sxp_burger32" data-tags="sxp_burger32" d="M1008 704h-992c-8.837 0-16 7.163-16 16s7.163 16 16 16v0h992c8.837 0 16-7.163 16-16s-7.163-16-16-16v0zM1008 416h-992c-8.837 0-16 7.163-16 16s7.163 16 16 16v0h992c8.837 0 16-7.163 16-16s-7.163-16-16-16v0zM656 128h-640c-8.837 0-16 7.163-16 16s7.163 16 16 16v0h640c8.837 0 16-7.163 16-16s-7.163-16-16-16v0z" />
<glyph unicode="&#xe929;" glyph-name="sxp_minus16" data-tags="sxp_minus16" d="M928 448h-896c-17.673 0-32 14.327-32 32s14.327 32 32 32v0h896c17.673 0 32-14.327 32-32s-14.327-32-32-32v0z" />
<glyph unicode="&#xe92a;" glyph-name="sxp_minus24" data-tags="sxp_minus24" d="M917.44 448h-896c-11.841 0-21.44 9.599-21.44 21.44v0c0 0.001 0 0.002 0 0.002 0 11.664 9.456 21.12 21.12 21.12 0.113 0 0.225-0.001 0.337-0.003h895.983c0.096 0.002 0.209 0.003 0.323 0.003 11.488 0 20.8-9.312 20.8-20.8 0-0.113-0.001-0.227-0.003-0.34v0.017c0.002-0.095 0.002-0.207 0.002-0.32 0-11.664-9.456-21.12-21.12-21.12-0.001 0-0.002 0-0.003 0v0z" />
<glyph unicode="&#xe92b;" glyph-name="sxp_minus32" data-tags="sxp_minus32" d="M976 448h-960c-8.837 0-16 7.163-16 16s7.163 16 16 16v0h960c8.837 0 16-7.163 16-16s-7.163-16-16-16v0z" />
<glyph unicode="&#xe92c;" glyph-name="sxp_plus16" data-tags="sxp_plus16" d="M480 0c-17.673 0-32 14.327-32 32v0 896c0 17.673 14.327 32 32 32s32-14.327 32-32v0-896c0-17.673-14.327-32-32-32v0zM928 448h-896c-17.673 0-32 14.327-32 32s14.327 32 32 32v0h896c17.673 0 32-14.327 32-32s-14.327-32-32-32v0z" />
<glyph unicode="&#xe92d;" glyph-name="sxp_plus24" data-tags="sxp_plus24" d="M490.56-21.44c-0.001 0-0.002 0-0.002 0-11.664 0-21.12 9.456-21.12 21.12 0 0.113 0.001 0.225 0.003 0.337v-0.017 938.56c-0.002 0.095-0.002 0.207-0.002 0.32 0 11.664 9.456 21.12 21.12 21.12 0.001 0 0.002 0 0.003 0v0c11.841 0 21.44-9.599 21.44-21.44v0-938.56c0-11.841-9.599-21.44-21.44-21.44v0zM960 448h-938.56c-11.841 0-21.44 9.599-21.44 21.44v0c0 0.001 0 0.002 0 0.002 0 11.664 9.456 21.12 21.12 21.12 0.113 0 0.225-0.001 0.337-0.003h938.543c0.095 0.002 0.207 0.002 0.32 0.002 11.664 0 21.12-9.456 21.12-21.12 0-0.001 0-0.002 0-0.003v0c0-11.841-9.599-21.44-21.44-21.44v0z" />
<glyph unicode="&#xe92e;" glyph-name="sxp_plus32" data-tags="sxp_plus32" d="M496-32c-8.837 0-16 7.163-16 16v0 960c0 8.837 7.163 16 16 16s16-7.163 16-16v0-960c0-8.837-7.163-16-16-16v0zM976 448h-960c-8.837 0-16 7.163-16 16s7.163 16 16 16v0h960c8.837 0 16-7.163 16-16s-7.163-16-16-16v0z" />
<glyph unicode="&#xe92f;" glyph-name="sxp_pdf16" data-tags="sxp_pdf16" d="M188.8 66.56c-0.083 0-0.181-0.001-0.279-0.001-17.279 0-33.15 6.033-45.619 16.108l0.138-0.108c-11.792 9.928-19.233 24.699-19.233 41.207 0 2.168 0.128 4.306 0.378 6.407l-0.025-0.254c4.48 43.2 54.72 96 128 134.72 30.72 16.241 67.22 31.834 105.052 44.524l5.348 1.556c16.96 27.52 33.92 57.6 49.92 89.92v0c18.685 37.305 35.901 81.376 49.154 127.131l1.406 5.669c-37.76 90.88-71.68 216 0 264 7.27 5.469 16.45 8.759 26.398 8.759 8.326 0 16.114-2.304 22.761-6.31l-0.199 0.111c32-16.64 41.92-68.8 41.92-112.32-1.181-53.748-9.048-105.158-22.803-154.104l1.043 4.344c9.92-22.080 21.44-45.12 34.88-68.8 20.81-39.533 45.072-73.597 73.242-103.988l-0.282 0.308c15.957 1.312 34.54 2.060 53.298 2.060 27.109 0 53.853-1.562 80.147-4.601l-3.205 0.301c61.76-8 107.84-32 122.88-60.8 4.003-7.209 6.36-15.809 6.36-24.96s-2.356-17.751-6.496-25.228l0.136 0.268c-16.492-24.305-43.994-40.065-75.176-40.065-2.938 0-5.843 0.14-8.709 0.413l0.365-0.028c-75.252 5.459-142.114 37.538-192.036 86.755l0.036-0.035c-39.657-3.806-74.612-9.115-108.933-16.161l6.533 1.121c-39.68-8-77.12-17.28-112-27.84-61.12-93.76-134.72-174.72-196.16-188.16-5.437-1.126-11.726-1.82-18.16-1.919l-0.080-0.001zM293.44 213.76l-11.2-5.76c-37.182-17.616-67.707-44.034-89.742-76.658l-0.498-0.782h3.84c40.083 19.042 73.054 47.395 97.067 82.378l0.533 0.822zM721.92 303.040c24.904-14.724 54.511-24.212 86.151-26.211l0.569-0.029c0.675-0.023 1.468-0.037 2.264-0.037 6.713 0 13.205 0.948 19.349 2.718l-0.492-0.121c-19.293 10.977-42.026 18.307-66.251 20.435l-0.629 0.045c-12.48 1.6-26.88 2.56-40.96 3.2zM469.76 372.16c-5.76-11.84-12.16-24.32-18.88-36.48 18.56 4.48 36.16 8.32 52.16 11.52s40.32 7.36 60.16 10.24c-18.811 23.39-36.596 49.544-52.232 77.077l-1.528 2.923-6.4 11.84c-11.391-31.868-22.189-57.326-34.174-82.103l2.174 4.983zM486.4 715.84c-0.475-4.746-0.746-10.258-0.746-15.833 0-9.893 0.853-19.587 2.491-29.012l-0.145 1.005c0 5.44 0 11.2 0 16.32 0.017 0.925 0.026 2.017 0.026 3.11 0 8.608-0.591 17.077-1.735 25.371l0.109-0.961zM928-64h-832c-53.019 0-96 42.981-96 96v0 832c0 53.019 42.981 96 96 96v0h832c53.019 0 96-42.981 96-96v0-832c0-53.019-42.981-96-96-96v0zM96 896c-17.673 0-32-14.327-32-32v0-832c0-17.673 14.327-32 32-32v0h832c17.673 0 32 14.327 32 32v0 832c0 17.673-14.327 32-32 32v0z" />
<glyph unicode="&#xe930;" glyph-name="sxp_pdf24" data-tags="sxp_pdf24" d="M181.76 69.44c-0.16-0.001-0.349-0.002-0.538-0.002-14.921 0-28.599 5.319-39.243 14.163l0.1-0.081c-8.987 7.621-14.653 18.921-14.653 31.544 0 2.422 0.209 4.794 0.609 7.102l-0.035-0.246c3.84 39.68 54.080 91.2 124.8 128 32.027 16.934 69.925 32.977 109.255 45.856l5.305 1.504c16.881 26.071 34.86 57.492 51.255 89.852l2.825 6.148c20.065 39.74 38.279 86.489 52.059 135.101l1.381 5.699c-45.76 108.48-65.6 219.84-4.16 260.48 4.956 3.305 11.048 5.275 17.6 5.275s12.644-1.969 17.717-5.348l-0.117 0.073c27.2-14.72 36.8-65.6 36.8-104.64-1.378-55.311-9.583-108.124-23.805-158.411l1.085 4.491c10.88-24.32 23.36-49.6 37.44-75.2 23.679-41.461 51.060-77.199 82.574-108.814l-0.014 0.014c17.308 1.468 37.456 2.305 57.8 2.305 27.548 0 54.738-1.535 81.489-4.524l-3.289 0.298c59.52-7.68 103.36-28.8 117.12-56.32 3.252-5.766 5.169-12.659 5.169-20s-1.916-14.234-5.276-20.207l0.107 0.207c-14.985-21.44-39.552-35.288-67.352-35.288-2.876 0-5.718 0.148-8.518 0.438l0.351-0.029c-75.555 5.922-142.464 38.811-191.97 88.93l-0.030 0.030c-42.734-3.886-80.564-9.427-117.717-16.845l6.997 1.165c-42.24-8.64-82.56-18.88-119.68-30.4-64-96-136.96-177.92-195.52-190.4-5.102-1.224-10.96-1.926-16.982-1.926-0.33 0-0.659 0.002-0.988 0.006l0.050-0.001zM325.76 237.76c-19.52-8-37.76-16.32-54.080-24.96-74.24-39.040-105.28-85.76-102.4-96 3.615-2.537 8.107-4.054 12.952-4.054 2.579 0 5.057 0.43 7.368 1.221l-0.16-0.048c34.56 6.72 85.76 54.72 136.32 123.84zM686.72 311.36c35.623-27.997 80.208-46.112 128.845-49.557l0.755-0.043c23.040 0 34.88 6.72 38.4 12.8-1.6 6.4-28.16 25.92-84.8 32-22.984 3.079-49.555 4.837-76.536 4.837-2.343 0-4.683-0.013-7.020-0.040l0.356 0.003zM458.88 375.36c-9.92-19.84-20.8-40-32-60.16 25.28 6.72 51.84 12.8 78.72 18.24s54.080 9.92 80.96 13.12c-24.448 28.166-46.601 59.601-65.417 93.16l-1.463 2.84c-6.4 11.52-12.48 23.040-18.56 34.88-13.784-40.743-27.956-74.479-44.149-107.032l2.229 4.952zM487.68 755.2c-20.48-21.12-17.92-75.52 3.84-144 4.652 24.31 7.436 52.387 7.679 81.071l0.001 0.209c0.078 1.787 0.123 3.882 0.123 5.988 0 20.612-4.283 40.223-12.007 57.993l0.364-0.941zM917.44-64h-810.88c-58.778 0.181-106.379 47.782-106.56 106.543v810.897c0.181 58.778 47.782 106.379 106.543 106.56h810.897c58.778-0.181 106.379-47.782 106.56-106.543v-810.897c-0.181-58.778-47.782-106.379-106.543-106.56h-0.017zM106.56 917.44c-35.346 0-64-28.654-64-64v0-810.88c0-35.346 28.654-64 64-64v0h810.88c35.346 0 64 28.654 64 64v0 810.88c0 35.346-28.654 64-64 64v0z" />
<glyph unicode="&#xe931;" glyph-name="sxp_pdf32" data-tags="sxp_pdf32" d="M178.24 71.040c-0.276-0.005-0.602-0.008-0.928-0.008-13.658 0-26.188 4.835-35.97 12.886l0.098-0.078c-8.448 6.801-13.807 17.141-13.807 28.733 0 1.83 0.134 3.628 0.391 5.387l-0.024-0.2c3.84 38.4 53.12 88.96 123.2 125.76 32.769 17.236 71.527 33.505 111.756 46.502l5.364 1.498c19.52 32 38.72 64 56 99.84v0c20.691 40.902 39.65 89.113 54.173 139.208l1.507 6.072c-46.080 108.16-66.88 218.88-7.040 258.24 4.29 2.628 9.483 4.185 15.040 4.185s10.75-1.556 15.168-4.257l-0.128 0.073c25.28-13.76 34.24-64 34.24-101.12-2.314-55.934-11.392-108.819-26.452-159.12l1.172 4.56c11.2-25.28 24-51.52 39.040-78.080 25.049-44.33 54.592-82.436 88.841-115.725l0.119-0.115c17.901 1.618 38.721 2.541 59.756 2.541 27.879 0 55.379-1.621 82.412-4.772l-3.288 0.312c57.28-7.36 101.12-27.84 114.24-53.76 2.794-5.090 4.438-11.153 4.438-17.6s-1.644-12.51-4.535-17.794l0.097 0.194c-14.284-19.738-37.251-32.431-63.182-32.431-2.881 0-5.725 0.157-8.525 0.462l0.346-0.031c-75.695 6.073-142.639 39.321-191.94 89.858l-0.060 0.062c-43.889-3.752-83.259-9.526-121.841-17.461l6.641 1.141c-50.34-10.402-91.671-21.447-132.108-34.482l8.908 2.482c-64-96-137.28-179.52-195.2-192-3.76-0.75-8.083-1.18-12.505-1.18-1.906 0-3.793 0.080-5.659 0.236l0.244-0.016zM338.24 247.36c-28.59-10.395-52.442-21.178-75.35-33.488l3.030 1.488c-69.76-37.12-104-81.28-105.92-100.8 0-4.48 0-5.44 0-6.080 4.628-3.656 10.547-5.864 16.982-5.864 3.082 0 6.046 0.507 8.812 1.441l-0.194-0.057c40.32 8.32 97.92 64.32 153.28 143.36zM672 314.88c39.615-34.080 90.291-56.324 145.986-60.743l0.894-0.057c2.029-0.296 4.372-0.465 6.755-0.465 14.591 0 27.701 6.341 36.724 16.418l0.041 0.047c0.431 0.734 0.686 1.617 0.686 2.56s-0.255 1.826-0.699 2.584l0.013-0.024c-5.44 10.88-32 29.44-89.6 36.48-20.75 2.577-44.766 4.047-69.126 4.047-11.142 0-22.211-0.308-33.201-0.915l1.528 0.067zM452.48 377.28c-11.84-24-24.96-48-39.040-72 29.44 8.32 60.48 15.68 92.16 21.76s61.76 10.88 92.16 14.4c-27.404 30.513-51.992 64.583-72.735 101.12l-1.505 2.88c-8.32 15.36-16.64 32-24.64 47.36-14.528-45.439-30.251-83.668-48.59-120.36l2.19 4.84zM487.040 768c-29.12-20.48-25.6-89.28 5.76-177.6 6.978 31.215 11.261 67.263 11.835 104.211l0.005 0.429c0.399 3.544 0.627 7.652 0.627 11.814 0 22.75-6.803 43.912-18.485 61.562l0.258-0.415zM944-64h-864c-44.183 0-80 35.817-80 80v0 864c0 44.183 35.817 80 80 80v0h864c44.183 0 80-35.817 80-80v0-864c0-44.183-35.817-80-80-80v0zM80 928c-26.51 0-48-21.49-48-48v0-864c0-26.51 21.49-48 48-48v0h864c26.51 0 48 21.49 48 48v0 864c0 26.51-21.49 48-48 48v0z" />
<glyph unicode="&#xe932;" glyph-name="sxp_edit16" data-tags="sxp_edit16" d="M864-64h-768c-53.019 0-96 42.981-96 96v0 768c0 53.019 42.981 96 96 96v0h266.88c17.673 0 32-14.327 32-32s-14.327-32-32-32v0h-266.88c-17.673 0-32-14.327-32-32v0-768c0-17.673 14.327-32 32-32v0h768c17.673 0 32 14.327 32 32v0 266.88c0 17.673 14.327 32 32 32s32-14.327 32-32v0-266.88c0-53.019-42.981-96-96-96v0zM262.4 166.4c-0.055 0-0.12-0.001-0.185-0.001-8.791 0-16.753 3.545-22.537 9.283l0.002-0.002c-5.758 5.785-9.317 13.763-9.317 22.572 0 2.319 0.247 4.58 0.715 6.758l-0.038-0.21 45.12 226.24c1.259 6.692 4.447 12.491 8.957 16.957l0.003 0.003 475.2 474.56c23.152 23.098 55.108 37.381 90.4 37.381s67.248-14.283 90.402-37.383l45.438-45.438c23.098-23.152 37.381-55.108 37.381-90.4s-14.283-67.248-37.383-90.402l0.002 0.002-474.56-475.2c-4.308-4.409-9.87-7.575-16.109-8.922l-0.211-0.038-226.88-45.12zM337.28 408.96l-34.24-169.6 169.92 33.92 468.16 468.16c11.597 11.584 18.77 27.594 18.77 45.28s-7.174 33.696-18.77 45.279l-45.121 45.121c-11.584 11.597-27.594 18.77-45.28 18.77s-33.696-7.174-45.279-18.77l-0.001-0.001zM488.64 243.84v0zM918.72 640c-9.074 0.393-17.115 4.508-22.689 10.844l-0.031 0.036-181.12 181.12c-5.751 5.784-9.305 13.757-9.305 22.56s3.555 16.776 9.307 22.562l-0.002-0.002c5.8 5.846 13.837 9.466 22.72 9.466s16.92-3.619 22.718-9.463l0.002-0.002 181.12-180.8c5.846-5.8 9.466-13.837 9.466-22.72s-3.619-16.92-9.463-22.718l-0.002-0.002c-5.605-6.372-13.646-10.487-22.653-10.878l-0.067-0.002zM493.44 216.64c-0.062 0-0.136-0.001-0.209-0.001-8.466 0-16.165 3.288-21.888 8.657l0.017-0.016-185.6 176.32c-5.215 5.674-8.411 13.275-8.411 21.623 0 17.673 14.327 32 32 32 7.709 0 14.782-2.726 20.306-7.267l-0.056 0.044 185.92-176.32c6.041-5.829 9.793-13.997 9.793-23.040 0-17.628-14.255-31.928-31.866-32h-0.007z" />
<glyph unicode="&#xe933;" glyph-name="sxp_edit24" data-tags="sxp_edit24" d="M871.68-64h-784.96c-47.894 0-86.72 38.826-86.72 86.72v0 785.28c-0.006 0.381-0.009 0.83-0.009 1.28 0 47.894 38.826 86.72 86.72 86.72 0.003 0 0.007 0 0.010 0h272.959c11.841 0 21.44-9.599 21.44-21.44s-9.599-21.44-21.44-21.44h-272.96c-0.003 0-0.007 0-0.010 0-24.389 0-44.16-19.771-44.16-44.16 0-0.338 0.004-0.674 0.011-1.010l-0.001 0.050v-785.28c0-24.389 19.771-44.16 44.16-44.16v0h784.96c24.389 0 44.16 19.771 44.16 44.16v0 272.96c0 11.841 9.599 21.44 21.44 21.44s21.44-9.599 21.44-21.44v0-272.96c-0.182-47.933-39.081-86.72-87.039-86.72 0 0 0 0 0 0v0zM256 171.52c-11.741 0.131-21.208 9.679-21.208 21.439 0 1.472 0.148 2.91 0.431 4.299l-0.023-0.138 46.080 231.36c1.284 4.318 3.615 7.994 6.705 10.866l0.015 0.014 485.76 485.76c21.678 21.494 51.528 34.776 84.48 34.776s62.802-13.282 84.488-34.784l46.392-46.392c21.57-21.643 34.907-51.504 34.907-84.48s-13.337-62.837-34.91-84.483l-485.757-485.757c-2.96-2.744-6.637-4.756-10.717-5.727l-231.523-46.433zM321.92 413.76l-37.76-193.6 192 38.72 480 480c14.033 13.871 22.723 33.121 22.723 54.4s-8.69 40.529-22.716 54.393l-0.007 0.007-43.52 48.32c-13.907 13.954-33.145 22.589-54.4 22.589s-40.493-8.634-54.398-22.586l-0.002-0.002zM487.36 239.040v0zM928 657.28c-5.893 0.068-11.204 2.504-15.037 6.397l-0.003 0.003-185.28 184.96c-3.849 3.849-6.23 9.167-6.23 15.040 0 11.747 9.523 21.27 21.27 21.27 5.873 0 11.191-2.381 15.040-6.23v0l184.96-184.96c3.813-3.868 6.167-9.183 6.167-15.047 0-11.647-9.286-21.124-20.859-21.432l-0.029-0.001zM493.12 224c-0.029 0-0.063 0-0.097 0-5.658 0-10.803 2.191-14.635 5.772l0.012-0.011-190.4 178.88c-3.755 3.95-6.065 9.305-6.065 15.2s2.31 11.25 6.074 15.209l-0.009-0.009c3.832 3.886 9.155 6.293 15.040 6.293s11.208-2.407 15.038-6.29l0.002-0.002 190.080-180.16c3.886-3.832 6.293-9.155 6.293-15.040s-2.407-11.208-6.29-15.038l-0.002-0.002c-3.549-3.032-8.192-4.877-13.266-4.877-0.625 0-1.243 0.028-1.853 0.083l0.079-0.006z" />
<glyph unicode="&#xe934;" glyph-name="sxp_edit32" data-tags="sxp_edit32" d="M875.84-64h-793.6c-45.42 0-82.24 36.82-82.24 82.24v0 793.6c0.182 45.282 36.932 81.92 82.239 81.92 0 0 0 0 0.001 0h275.84c8.837 0 16-7.163 16-16v0c-0.176-8.765-7.235-15.824-15.983-16h-275.857c-0.095 0.001-0.207 0.001-0.32 0.001-27.57 0-49.92-22.35-49.92-49.92 0 0 0-0.001 0-0.001v0-793.6c0-27.747 22.493-50.24 50.24-50.24v0h793.6c0 0 0.001 0 0.001 0 27.57 0 49.92 22.35 49.92 49.92 0 0.113 0 0.225-0.001 0.337v-0.017 275.84c0.176 8.765 7.235 15.824 15.983 16h0.017c8.837 0 16-7.163 16-16v0-275.84c0 0 0 0 0-0.001 0-45.307-36.638-82.058-81.903-82.239h-0.017zM254.080 174.080c-0.055-0.001-0.119-0.001-0.183-0.001-4.347 0-8.263 1.844-11.008 4.792l-0.008 0.009c-2.833 2.931-4.578 6.929-4.578 11.334 0 0.629 0.036 1.25 0.105 1.86l-0.007-0.075 46.72 233.92c0.759 3.154 2.33 5.867 4.479 7.999l0.001 0.001 490.88 492.16c20.816 20.952 49.645 33.92 81.504 33.92 0.034 0 0.067 0 0.101 0h-0.005c0.013 0 0.028 0 0.043 0 31.775 0 60.519-12.972 81.227-33.91l0.010-0.010 48.64-46.72c20.759-20.88 33.591-49.662 33.591-81.44s-12.832-60.56-33.596-81.446l-492.794-492.474c-2.133-2.15-4.846-3.721-7.886-4.457l-0.114-0.023-235.2-45.12zM315.52 416l-40.96-205.44 205.44 40.96 487.68 487.68c15.008 15.096 24.285 35.905 24.285 58.88s-9.277 43.784-24.289 58.884l-46.716 46.716c-15.051 15.027-35.832 24.32-58.783 24.32-0.034 0-0.069 0-0.103 0h0.005c-0.108 0.001-0.235 0.001-0.362 0.001-22.868 0-43.564-9.297-58.515-24.318l-0.003-0.003zM488 236.8v0zM932.16 665.28c-0.144-0.005-0.313-0.008-0.483-0.008-4.194 0-7.987 1.717-10.715 4.486l-187.202 187.202c-2.828 2.884-4.574 6.838-4.574 11.2s1.746 8.316 4.576 11.203l-0.003-0.003c2.9 2.923 6.919 4.733 11.36 4.733s8.46-1.81 11.359-4.732l186.881-186.881c2.923-2.9 4.733-6.919 4.733-11.36s-1.81-8.46-4.732-11.359l-0.001-0.001c-2.68-2.772-6.433-4.493-10.587-4.493-0.216 0-0.43 0.005-0.644 0.014l0.030-0.001zM492.8 225.92c-0.035 0-0.076 0-0.118 0-4.15 0-7.932 1.58-10.775 4.172l0.013-0.011-192 182.080c-3.102 2.936-5.032 7.083-5.032 11.68 0 8.876 7.196 16.072 16.072 16.072 4.279 0 8.167-1.672 11.047-4.399l-0.007 0.007 192-182.080c2.923-2.9 4.733-6.919 4.733-11.36s-1.81-8.46-4.732-11.359l-0.001-0.001c-2.872-2.884-6.815-4.699-11.181-4.8h-0.019z" />
<glyph unicode="&#xe935;" glyph-name="sxp_filter32" data-tags="sxp_filter32" d="M432-64c-0.866-0.146-1.863-0.229-2.88-0.229s-2.014 0.083-2.986 0.243l0.106-0.014c-6.065 2.472-10.262 8.323-10.262 15.154 0 0.298 0.008 0.593 0.024 0.887l-0.002-0.041v407.040l-413.12 575.68c-1.499 2.361-2.389 5.236-2.389 8.32s0.89 5.959 2.427 8.384l-0.038-0.064c2.445 4.959 7.355 8.369 13.086 8.639l0.034 0.001h992c0.079 0.001 0.173 0.002 0.267 0.002 6.039 0 11.263-3.485 13.773-8.553l0.040-0.090c1.499-2.361 2.389-5.236 2.389-8.32s-0.89-5.959-2.427-8.384l0.038 0.064-414.080-575.68v-231.040c-0.12-4.17-1.673-7.956-4.181-10.905l0.021 0.025-160-176c-2.995-3.119-7.185-5.071-11.831-5.12h-0.009zM47.040 928l398.080-554.56c1.802-2.485 2.883-5.596 2.883-8.959 0-0.113-0.001-0.225-0.004-0.338v0.017-370.88l128 140.8v230.080c-0.002 0.096-0.003 0.208-0.003 0.321 0 3.363 1.081 6.474 2.914 9.004l-0.031-0.045 398.080 554.56z" />
<glyph unicode="&#xe936;" glyph-name="sxp_filter24" data-tags="sxp_filter24" d="M432.96-64c-1.155-0.231-2.482-0.363-3.84-0.363s-2.685 0.132-3.97 0.384l0.13-0.021c-8.117 3.177-13.76 10.938-13.76 20.017 0 0.050 0 0.1 0.001 0.15v-0.008 401.92l-407.36 568.32c-2.603 3.472-4.168 7.852-4.168 12.598 0 3.458 0.831 6.721 2.304 9.602l-0.055-0.119c3.79 6.86 10.951 11.446 19.19 11.52h981.13c8.249-0.074 15.41-4.66 19.142-11.407l0.058-0.113c1.418-2.761 2.248-6.025 2.248-9.482 0-4.746-1.565-9.126-4.208-12.652l-407.321-568.265v-226.56c0.001-0.074 0.001-0.162 0.001-0.249 0-5.452-2.066-10.422-5.458-14.169l0.016 0.018-159.040-174.080c-3.77-4.106-9.070-6.755-14.991-7.038l-0.049-0.002zM64 917.44l386.24-539.84c2.404-3.483 3.84-7.795 3.84-12.443 0-0.013 0-0.026 0-0.039v0.002-352l115.84 128v224c0 0.011 0 0.024 0 0.037 0 4.648 1.436 8.96 3.888 12.517l-0.048-0.074 386.24 539.84z" />
<glyph unicode="&#xe937;" glyph-name="sxp_filter16" data-tags="sxp_filter16" d="M434.56-64c-0.075-0.001-0.164-0.001-0.254-0.001-4.065 0-7.937 0.824-11.46 2.314l0.193-0.073c-12.054 4.745-20.439 16.268-20.48 29.755v388.485l-396.48 552.96c-3.558 5.084-5.685 11.398-5.685 18.208 0 5.014 1.153 9.758 3.208 13.982l-0.083-0.19c5.122 10.884 15.904 18.332 28.45 18.56h960.030c17.61-0.084 31.853-14.378 31.853-32 0-6.961-2.223-13.404-5.998-18.656l0.065 0.095-396.48-552.96v-218.24c-0.022-8.27-3.178-15.799-8.343-21.465l0.023 0.025-154.88-170.24c-5.863-6.478-14.295-10.537-23.676-10.56h-0.004zM96 896l364.48-512c3.76-5.143 6.033-11.582 6.080-18.549v-316.171l90.88 99.84v217.92c0.047 6.978 2.32 13.417 6.143 18.651l-0.063-0.091 366.080 510.4z" />
<glyph unicode="&#xe938;" glyph-name="sxp_download41" data-tags="sxp_download41" d="M1011.52-64h-999.040c-6.912 0-12.48 5.6-12.48 12.48v0 549.472c0 6.912 5.6 12.48 12.48 12.48v0c6.912 0 12.48-5.6 12.48-12.48v0-536.96h974.048v536.96c0 6.912 5.6 12.48 12.48 12.48s12.48-5.6 12.48-12.48v0-549.472c0-6.912-5.6-12.48-12.48-12.48v0zM811.712 410.528c0.032 0 0.096 0 0.128 0 3.392 0 6.464-1.44 8.576-3.744v0c2.336-2.208 3.776-5.312 3.776-8.736s-1.44-6.56-3.776-8.736l-299.712-299.712c-2.24-2.24-5.312-3.616-8.736-3.616-6.816 0-12.352 5.536-12.352 12.352 0 3.424 1.376 6.496 3.616 8.736l299.712 299.712c2.144 2.304 5.216 3.744 8.608 3.744 0.064 0 0.096 0 0.16 0v0zM212.288 410.528c0.032 0 0.096 0 0.128 0 3.392 0 6.464-1.44 8.608-3.744l299.712-299.712c2.24-2.24 3.616-5.312 3.616-8.736 0-6.816-5.536-12.352-12.352-12.352-3.424 0-6.496 1.376-8.736 3.616l-299.712 299.712c-2.336 2.208-3.776 5.312-3.776 8.736s1.44 6.56 3.776 8.736v0c2.144 2.304 5.216 3.744 8.608 3.744 0.064 0 0.096 0 0.16 0v0zM512 960c6.912 0 12.48-5.6 12.48-12.48v0-849.184c0-6.912-5.6-12.48-12.48-12.48s-12.48 5.6-12.48 12.48v0 849.184c0 6.912 5.6 12.48 12.48 12.48v0z" />
<glyph unicode="&#xe939;" glyph-name="sxp_upload41" data-tags="sxp_upload41" d="M1011.52-64h-999.040c-6.912 0-12.48 5.6-12.48 12.48v0 549.472c0 6.912 5.6 12.48 12.48 12.48v0c6.912 0 12.48-5.6 12.48-12.48v0-536.96h974.048v536.96c0 6.912 5.6 12.48 12.48 12.48s12.48-5.6 12.48-12.48v0-549.472c0-6.912-5.6-12.48-12.48-12.48v0zM212.288 635.328c-0.032 0-0.096 0-0.128 0-3.392 0-6.464 1.44-8.608 3.744v0c-2.336 2.208-3.776 5.312-3.776 8.736s1.44 6.56 3.776 8.736l299.712 299.712c2.208 2.336 5.312 3.776 8.736 3.776s6.56-1.44 8.736-3.776v0c2.336-2.208 3.776-5.312 3.776-8.736s-1.44-6.56-3.776-8.736l-299.712-299.712c-2.144-2.304-5.216-3.744-8.608-3.744-0.064 0-0.096 0-0.16 0v0zM811.712 635.328c-0.032 0-0.096 0-0.128 0-3.392 0-6.464 1.44-8.576 3.744l-299.712 299.712c-2.336 2.208-3.776 5.312-3.776 8.736s1.44 6.56 3.776 8.736v0c2.208 2.336 5.312 3.776 8.736 3.776s6.56-1.44 8.736-3.776l299.712-299.712c2.336-2.208 3.776-5.312 3.776-8.736s-1.44-6.56-3.776-8.736v0c-2.144-2.304-5.216-3.744-8.608-3.744-0.064 0-0.096 0-0.16 0v0zM512 85.856c-6.912 0-12.48 5.6-12.48 12.48v0 849.184c0 6.912 5.6 12.48 12.48 12.48s12.48-5.6 12.48-12.48v0-849.184c0-6.912-5.6-12.48-12.48-12.48v0z" />
<glyph unicode="&#xe93a;" glyph-name="sxp_vorlagendownload16" data-tags="sxp_vorlagendownload16" d="M992-64h-960c-17.673 0-32 14.327-32 32v0 960c0 17.673 14.327 32 32 32v0h960c17.673 0 32-14.327 32-32v0-960c0-17.673-14.327-32-32-32v0zM64 0h896v896h-896zM887.68 40.32h-128c-17.673 0-32 14.327-32 32s14.327 32 32 32v0h128c17.673 0 32-14.327 32-32s-14.327-32-32-32v0zM503.68 40.32h-128c-17.673 0-32 14.327-32 32s14.327 32 32 32v0h128c17.673 0 32-14.327 32-32s-14.327-32-32-32v0zM136.32 57.28c-17.673 0-32 14.327-32 32v0 128c0 17.673 14.327 32 32 32s32-14.327 32-32v0-128c0-17.673-14.327-32-32-32v0zM887.68 229.44c-17.673 0-32 14.327-32 32v0 128c0 17.673 14.327 32 32 32s32-14.327 32-32v0-128c0-17.673-14.327-32-32-32v0zM136.32 440.96c-17.673 0-32 14.327-32 32v0 128c0 17.673 14.327 32 32 32s32-14.327 32-32v0-128c0-17.673-14.327-32-32-32v0zM887.68 613.44c-17.673 0-32 14.327-32 32v0 128c0 17.673 14.327 32 32 32s32-14.327 32-32v0-128c0-17.673-14.327-32-32-32v0zM681.92 791.68h-128c-17.673 0-32 14.327-32 32s14.327 32 32 32v0h128c17.673 0 32-14.327 32-32s-14.327-32-32-32v0zM297.92 791.68h-128c-17.673 0-32 14.327-32 32s14.327 32 32 32v0h128c17.673 0 32-14.327 32-32s-14.327-32-32-32v0z" />
<glyph unicode="&#xe93b;" glyph-name="sxp_vorlagendownload24" data-tags="sxp_vorlagendownload24" d="M1002.56-64h-981.12c-11.841 0-21.44 9.599-21.44 21.44v0 981.12c0 11.841 9.599 21.44 21.44 21.44v0h981.12c11.841 0 21.44-9.599 21.44-21.44v0-981.12c0-11.841-9.599-21.44-21.44-21.44v0zM42.56-21.44h938.88v938.88h-938.88zM896 42.56h-85.44c-11.841 0-21.44 9.599-21.44 21.44s9.599 21.44 21.44 21.44h85.44c11.841 0 21.44-9.599 21.44-21.44s-9.599-21.44-21.44-21.44v0zM640 42.56h-85.44c-11.841 0-21.44 9.599-21.44 21.44s9.599 21.44 21.44 21.44h85.44c11.841 0 21.44-9.599 21.44-21.44s-9.599-21.44-21.44-21.44v0zM384 42.56h-85.44c-11.841 0-21.44 9.599-21.44 21.44s9.599 21.44 21.44 21.44h85.44c11.841 0 21.44-9.599 21.44-21.44s-9.599-21.44-21.44-21.44v0zM128 42.56c-11.841 0-21.44 9.599-21.44 21.44v0 85.44c0 11.841 9.599 21.44 21.44 21.44s21.44-9.599 21.44-21.44v0-85.44c0-11.841-9.599-21.44-21.44-21.44v0zM896 213.44c-0.001 0-0.002 0-0.002 0-11.728 0-21.257 9.417-21.437 21.103v85.457c0 11.841 9.599 21.44 21.44 21.44s21.44-9.599 21.44-21.44v0-85.44c-0.18-11.703-9.709-21.12-21.438-21.12-0.001 0-0.002 0-0.003 0v0zM128 298.56c-11.841 0-21.44 9.599-21.44 21.44v0 85.44c0 11.841 9.599 21.44 21.44 21.44s21.44-9.599 21.44-21.44v0-85.44c0-11.841-9.599-21.44-21.44-21.44v0zM896 469.44c-0.001 0-0.002 0-0.002 0-11.728 0-21.257 9.417-21.437 21.103v85.457c0 11.841 9.599 21.44 21.44 21.44s21.44-9.599 21.44-21.44v0-85.44c-0.18-11.703-9.709-21.12-21.438-21.12-0.001 0-0.002 0-0.003 0v0zM128 554.56c-11.841 0-21.44 9.599-21.44 21.44v0 85.44c0 11.841 9.599 21.44 21.44 21.44s21.44-9.599 21.44-21.44v0-85.44c0-11.841-9.599-21.44-21.44-21.44v0zM896 725.44c-0.001 0-0.002 0-0.002 0-11.728 0-21.257 9.417-21.437 21.103v85.457c0 11.841 9.599 21.44 21.44 21.44s21.44-9.599 21.44-21.44v0-85.44c-0.18-11.703-9.709-21.12-21.438-21.12-0.001 0-0.002 0-0.003 0v0zM725.44 810.56h-85.44c-11.841 0-21.44 9.599-21.44 21.44s9.599 21.44 21.44 21.44h85.44c11.841 0 21.44-9.599 21.44-21.44s-9.599-21.44-21.44-21.44v0zM469.44 810.56h-85.44c-11.841 0-21.44 9.599-21.44 21.44s9.599 21.44 21.44 21.44h85.44c11.841 0 21.44-9.599 21.44-21.44s-9.599-21.44-21.44-21.44v0zM213.44 810.56h-85.44c-11.841 0-21.44 9.599-21.44 21.44s9.599 21.44 21.44 21.44h85.44c11.841 0 21.44-9.599 21.44-21.44s-9.599-21.44-21.44-21.44v0z" />
<glyph unicode="&#xe93c;" glyph-name="sxp_vorlagendownload32" data-tags="sxp_vorlagendownload32" d="M1008-64h-992c-8.837 0-16 7.163-16 16v0 992c0 8.837 7.163 16 16 16v0h992c8.837 0 16-7.163 16-16v0-992c0-8.837-7.163-16-16-16v0zM32-32h960v960h-960zM900.16 43.84h-64c-8.837 0-16 7.163-16 16s7.163 16 16 16v0h48v17.28c0 8.837 7.163 16 16 16s16-7.163 16-16v0-32c0-8.837-7.163-16-16-16v0zM708.16 45.12h-64c-8.837 0-16 7.163-16 16s7.163 16 16 16v0h64c8.837 0 16-7.163 16-16s-7.163-16-16-16v0zM516.16 45.12h-64c-8.837 0-16 7.163-16 16s7.163 16 16 16v0h64c8.837 0 16-7.163 16-16s-7.163-16-16-16v0zM324.16 45.12h-64c-8.837 0-16 7.163-16 16s7.163 16 16 16v0h64c8.837 0 16-7.163 16-16s-7.163-16-16-16v0zM132.16 45.12h-8.32c-8.837 0-16 7.163-16 16v0 54.4c0 8.837 7.163 16 16 16s16-7.163 16-16v0-41.6c5.040-2.76 8.401-8.028 8.401-14.080 0-8.837-7.163-16-16-16-0.028 0-0.057 0-0.085 0h0.004zM900.16 203.84c-8.837 0-16 7.163-16 16v0 64c0 8.837 7.163 16 16 16s16-7.163 16-16v0-64c0-8.837-7.163-16-16-16v0zM123.84 226.24c-8.837 0-16 7.163-16 16v0 64c0 8.837 7.163 16 16 16s16-7.163 16-16v0-64c0-8.837-7.163-16-16-16v0zM900.16 395.84c-8.837 0-16 7.163-16 16v0 64c0 8.837 7.163 16 16 16s16-7.163 16-16v0-64c0-8.837-7.163-16-16-16v0zM123.84 418.24c-8.837 0-16 7.163-16 16v0 64c0 8.837 7.163 16 16 16s16-7.163 16-16v0-64c0-8.837-7.163-16-16-16v0zM900.16 587.84c-8.837 0-16 7.163-16 16v0 64c0 8.837 7.163 16 16 16s16-7.163 16-16v0-64c0-8.837-7.163-16-16-16v0zM123.84 610.24c-8.837 0-16 7.163-16 16v0 64c0 8.837 7.163 16 16 16s16-7.163 16-16v0-64c0-8.837-7.163-16-16-16v0zM900.16 779.84c-8.837 0-16 7.163-16 16v0 24.32h-8.96c-8.837 0-16 7.163-16 16s7.163 16 16 16v0h24.96c8.837 0 16-7.163 16-16v0-39.040c0-8.837-7.163-16-16-16v0zM123.84 803.52c-8.837 0-16 7.163-16 16v0 16.64c0 8.837 7.163 16 16 16v0h47.36c8.837 0 16-7.163 16-16s-7.163-16-16-16v0h-32c0-8.837-7.163-16-16-16v0zM746.56 820.8h-64c-8.837 0-16 7.163-16 16s7.163 16 16 16v0h64c8.837 0 16-7.163 16-16s-7.163-16-16-16v0zM554.56 820.8h-64c-8.837 0-16 7.163-16 16s7.163 16 16 16v0h64c8.837 0 16-7.163 16-16s-7.163-16-16-16v0zM362.56 820.8h-64c-8.837 0-16 7.163-16 16s7.163 16 16 16v0h64c8.837 0 16-7.163 16-16s-7.163-16-16-16v0z" />
<glyph unicode="&#xe93d;" glyph-name="sxp_designer-24" data-tags="sxp_designer-24" d="M213.44 234.88c10.244-0.636 19.444-4.648 26.611-10.924l-0.051 0.044c9.823-7.924 16.053-19.96 16.053-33.452 0-10.137-3.518-19.453-9.399-26.793l0.066 0.085c-7.865-9.595-19.717-15.669-32.988-15.669-23.505 0-42.56 19.055-42.56 42.56s19.055 42.56 42.56 42.56c0.347 0 0.694-0.004 1.039-0.012l-0.051 0.001zM214.72 275.84c-0.385 0.006-0.84 0.010-1.295 0.010-46.628 0-84.532-37.352-85.424-83.766l-0.001-0.083c2.835-44.884 39.932-80.214 85.28-80.214s82.445 35.33 85.267 79.966l0.013 0.247c-0.079 26.937-12.472 50.963-31.843 66.756l-0.157 0.124c-14.486 11.449-32.976 18.415-53.087 18.56h-0.033zM640 661.44c16.81-0.184 31.298-9.94 38.287-24.068l0.113-0.252c2.571-5.343 4.074-11.617 4.074-18.242 0-23.539-18.967-42.648-42.452-42.878h-0.022c-23.459 0.291-42.364 19.376-42.364 42.877 0 16.731 9.583 31.224 23.559 38.291l0.245 0.112c5.445 2.548 11.814 4.072 18.529 4.16h0.031zM640 704c-47.114-0.181-85.259-38.326-85.44-85.423v-0.017c0-0.054 0-0.117 0-0.181 0-13.348 3.192-25.95 8.855-37.085l-0.215 0.466c14.11-28.641 43.094-48 76.6-48 47.010 0 85.12 38.11 85.12 85.12 0 46.94-37.995 85.006-84.909 85.12h-0.011zM426.56 789.44c1.443 0.23 3.106 0.362 4.8 0.362s3.357-0.132 4.98-0.385l-0.18 0.023c11.413-2.489 20.892-9.353 26.778-18.706l0.102-0.174c4.078-6.473 6.497-14.346 6.497-22.784 0-15.88-8.568-29.759-21.334-37.266l-0.203-0.11c-6.522-4.214-14.491-6.719-23.045-6.719-23.682 0-42.88 19.198-42.88 42.88s19.198 42.88 42.88 42.88c0.114 0 0.228 0 0.342-0.001h-0.018zM425.28 832c-46.817-0.485-84.583-38.55-84.583-85.436 0-40.3 27.901-74.083 65.44-83.086l0.582-0.118c5.526-1.221 11.873-1.92 18.383-1.92 0.062 0 0.124 0 0.186 0h-0.010c1.563-0.102 3.388-0.16 5.226-0.16 47.187 0 85.44 38.253 85.44 85.44s-38.253 85.44-85.44 85.44c-1.839 0-3.664-0.058-5.474-0.173l0.247 0.013zM213.44 746.56c23.505 0 42.56-19.055 42.56-42.56v0c0.076-0.72 0.119-1.555 0.119-2.4s-0.043-1.68-0.127-2.503l0.009 0.103c-1.537-11.191-7.436-20.77-15.895-27.125l-0.105-0.075c-5.689-3.011-12.436-4.779-19.595-4.779-23.505 0-42.56 19.055-42.56 42.56 0 9.932 3.402 19.069 9.104 26.31l-0.069-0.091c7.205 5.782 16.458 9.28 26.529 9.28 0.011 0 0.022 0 0.033 0h-0.002zM213.44 788.16c-0.031 0-0.068 0-0.105 0-47.187 0-85.44-38.253-85.44-85.44s38.253-85.44 85.44-85.44c47.187 0 85.44 38.253 85.44 85.44 0 20.299-7.079 38.945-18.903 53.603l0.128-0.163c-15.61 19.57-39.455 32.001-66.203 32.001-0.126 0-0.251 0-0.377-0.001h0.020zM380.16-64c-88.45 2.818-170.398 28.262-240.971 70.695l2.251-1.255c-91.2 54.4-141.44 128-141.44 207.36-0.012 0.795-0.019 1.733-0.019 2.672 0 70.7 38.213 132.475 95.112 165.797l0.906 0.491c32 24.32 48 37.12 48 66.24s-16 42.24-48 66.56c-57.83 34.2-96.005 96.243-96.005 167.201 0 0.506 0.002 1.011 0.006 1.516v-0.077c0 79.68 49.92 152.96 141.12 207.36 68.322 41.178 150.27 66.622 237.936 69.42l0.784 0.020c0.382 0.001 0.834 0.002 1.286 0.002 114.745 0 220.528-38.37 305.219-102.978l-1.225 0.897c69.809-59.392 125.061-133.736 161.103-218.238l1.457-3.842c1.544-2.887 2.451-6.315 2.451-9.954 0-11.841-9.599-21.44-21.44-21.44-9.451 0-17.473 6.115-20.327 14.603l-0.044 0.151c-34.178 81.437-84.78 150.006-148.066 204.186l-0.734 0.614c-76.815 58.329-174.040 93.44-279.465 93.44-0.076 0-0.151 0-0.227 0h0.012c-80.476-2.927-154.91-26.34-218.987-65.14l2.027 1.14c-77.44-45.44-120.32-106.24-120.32-169.92-0.008-0.568-0.012-1.238-0.012-1.91 0-56.886 31.315-106.457 77.647-132.416l0.766-0.394c36.77-19.783 61.838-57.135 63.989-100.517l0.011-0.283c-2.145-43.581-27.23-80.847-63.356-100.165l-0.644-0.315c-47.097-26.353-78.412-75.925-78.412-132.81 0-0.671 0.004-1.342 0.013-2.011l-0.001 0.102c0-64 42.88-124.48 120.32-170.56 62.086-37.905 136.684-61.359 216.554-63.981l0.726-0.019c0.45-0.002 0.983-0.002 1.517-0.002 128.479 0 244.694 52.508 328.356 137.235l0.047 0.048c55.151 53.562 96.309 121.241 117.654 197.211l0.746 3.109c2.191 9.695 10.732 16.827 20.938 16.827 11.841 0 21.44-9.599 21.44-21.44 0-0.855-0.050-1.698-0.147-2.527l0.010 0.101c-23.39-88.472-68.826-164.299-130.127-223.891l-0.113-0.109c-91.42-91.919-217.983-148.806-357.832-148.806-0.875 0-1.749 0.002-2.623 0.007l0.135-0.001zM964.48 563.52c0.344 0.018 0.748 0.029 1.153 0.029 4.962 0 9.558-1.569 13.318-4.237l-0.071 0.048c-48-43.84-331.2-303.36-374.72-342.080l-14.4-5.44-4.8-22.72c-6.344-21.98-19.167-40.4-36.241-53.583l-0.239-0.177c-46.354-25.066-100.829-41.507-158.701-45.685l-1.299-0.075c14.019 26.139 25.090 56.44 31.629 88.393l0.371 2.167c14.878 38.656 50.448 66.17 92.785 69.101l0.335 0.019h11.2l9.28 6.4 420.48 305.28c1.251 0.231 2.69 0.363 4.16 0.363s2.909-0.132 4.306-0.385l-0.146 0.022zM962.88 603.52c-0.109 0.001-0.238 0.001-0.367 0.001-10.582 0-20.585-2.481-29.458-6.894l0.385 0.173s-421.44-305.28-421.44-305.28c-61.632-4.257-112.496-45.946-130.277-102.319l-0.283-1.041c-10.322-49.717-32.815-93.063-64.237-128.27l0.237 0.27c-7.040-7.68 0-18.88 12.16-19.2v0c7.36 0 185.28 12.8 244.8 61.76 24.851 19.148 42.995 45.919 50.984 76.778l0.216 0.982c1.6 0 388.16 354.24 388.8 354.88 5.323 6.693 8.541 15.268 8.541 24.594 0 12.379-5.668 23.433-14.551 30.71l-0.070 0.056c-11.277 10.142-26.274 16.344-42.719 16.344-0.619 0-1.236-0.009-1.851-0.026l0.090 0.002zM507.639 264.7l29.538 30.641 90.771-87.503-29.538-30.641-90.771 87.503z" />
<glyph unicode="&#xe93e;" glyph-name="sxp_designer-32" data-tags="sxp_designer-32" d="M213.44 234.88c10.244-0.636 19.444-4.648 26.611-10.924l-0.051 0.044c9.823-7.924 16.053-19.96 16.053-33.452 0-10.137-3.518-19.453-9.399-26.793l0.066 0.085c-7.865-9.595-19.717-15.669-32.988-15.669-23.505 0-42.56 19.055-42.56 42.56s19.055 42.56 42.56 42.56c0.347 0 0.694-0.004 1.039-0.012l-0.051 0.001zM214.72 275.84c-0.385 0.006-0.84 0.010-1.295 0.010-46.628 0-84.532-37.352-85.424-83.766l-0.001-0.083c2.835-44.884 39.932-80.214 85.28-80.214s82.445 35.33 85.267 79.966l0.013 0.247c-0.079 26.937-12.472 50.963-31.843 66.756l-0.157 0.124c-14.486 11.449-32.976 18.415-53.087 18.56h-0.033zM640 661.44c16.765-0.339 31.187-10.037 38.285-24.069l0.115-0.251c2.571-5.343 4.074-11.617 4.074-18.242 0-23.539-18.967-42.648-42.452-42.878h-0.022c-23.459 0.291-42.364 19.376-42.364 42.877 0 16.731 9.583 31.224 23.559 38.291l0.245 0.112c5.445 2.548 11.814 4.072 18.529 4.16h0.031zM640 704c-47.187 0-85.44-38.253-85.44-85.44v0c0-0.054 0-0.117 0-0.181 0-13.348 3.192-25.95 8.855-37.085l-0.215 0.466c14.11-28.641 43.094-48 76.6-48 47.010 0 85.12 38.11 85.12 85.12 0 46.94-37.995 85.006-84.909 85.12h-0.011zM426.56 789.44c1.443 0.23 3.106 0.362 4.8 0.362s3.357-0.132 4.98-0.385l-0.18 0.023c11.362-2.384 20.779-9.287 26.459-18.699l0.101-0.181c4.012-6.374 6.392-14.126 6.392-22.433 0-23.505-19.055-42.56-42.56-42.56s-42.56 19.055-42.56 42.56c0 15.215 7.983 28.564 19.99 36.089l0.178 0.104c6.346 4.016 14.072 6.4 22.354 6.4 0.016 0 0.032 0 0.048 0h-0.002zM426.56 833.28c-46.951-0.311-84.892-38.444-84.892-85.438 0-40.296 27.896-74.077 65.429-83.084l0.582-0.118c5.669-1.205 12.188-1.904 18.868-1.92h0.012c1.563-0.102 3.388-0.16 5.226-0.16 47.187 0 85.44 38.253 85.44 85.44s-38.253 85.44-85.44 85.44c-1.839 0-3.664-0.058-5.474-0.173l0.247 0.013zM213.44 746.56c23.505 0 42.56-19.055 42.56-42.56v0c0.076-0.72 0.119-1.555 0.119-2.4s-0.043-1.68-0.127-2.503l0.009 0.103c-1.537-11.191-7.436-20.77-15.895-27.125l-0.105-0.075c-5.689-3.011-12.436-4.779-19.595-4.779-23.505 0-42.56 19.055-42.56 42.56 0 9.932 3.402 19.069 9.104 26.31l-0.069-0.091c7.205 5.782 16.458 9.28 26.529 9.28 0.011 0 0.022 0 0.033 0h-0.002zM213.44 788.16c-0.031 0-0.068 0-0.105 0-47.187 0-85.44-38.253-85.44-85.44s38.253-85.44 85.44-85.44c47.187 0 85.44 38.253 85.44 85.44 0 20.299-7.079 38.945-18.903 53.603l0.128-0.163c-15.61 19.57-39.455 32.001-66.203 32.001-0.126 0-0.251 0-0.377-0.001h0.020zM380.16-64c-88.45 2.818-170.398 28.262-240.971 70.695l2.251-1.255c-91.2 54.4-141.44 128-141.44 207.36-0.012 0.795-0.019 1.733-0.019 2.672 0 70.7 38.213 132.475 95.112 165.797l0.906 0.491c32 24.32 48 37.12 48 66.24s-16 42.24-48 66.56c-57.803 33.813-96.014 95.587-96.014 166.285 0 0.828 0.005 1.655 0.016 2.48l-0.001-0.125c0 79.68 49.92 152.96 141.12 207.36 68.228 41.14 150.060 66.579 237.604 69.42l0.796 0.020c0.445 0.001 0.971 0.002 1.498 0.002 114.78 0 220.599-38.369 305.329-102.98l-1.227 0.898c69.809-59.392 125.061-133.736 161.103-218.238l1.457-3.842c1.544-2.887 2.451-6.315 2.451-9.954 0-11.841-9.599-21.44-21.44-21.44-9.451 0-17.473 6.115-20.327 14.603l-0.044 0.151c-34.178 81.437-84.78 150.006-148.066 204.186l-0.734 0.614c-76.815 58.329-174.040 93.44-279.466 93.44-0.188 0-0.375 0-0.563 0h0.029c-80.365-2.985-154.68-26.39-218.666-65.139l2.026 1.139c-77.44-45.76-120.32-106.24-120.32-169.92-0.008-0.568-0.012-1.238-0.012-1.91 0-56.886 31.315-106.457 77.647-132.416l0.766-0.394c36.77-19.783 61.838-57.135 63.989-100.517l0.011-0.283c-2.145-43.581-27.23-80.847-63.356-100.165l-0.644-0.315c-47.097-26.353-78.412-75.925-78.412-132.81 0-0.671 0.004-1.342 0.013-2.011l-0.001 0.102c0-64 42.88-124.48 120.32-170.56 62.086-37.905 136.684-61.359 216.554-63.981l0.726-0.019c0.45-0.002 0.983-0.002 1.517-0.002 128.479 0 244.694 52.508 328.356 137.235l0.047 0.048c55.151 53.562 96.309 121.241 117.654 197.211l0.746 3.109c1.763 10.215 10.558 17.887 21.144 17.887 1.235 0 2.445-0.104 3.623-0.305l-0.127 0.018c10.24-1.9 17.891-10.763 17.891-21.413 0-1.253-0.106-2.48-0.309-3.675l0.018 0.128c-23.39-88.472-68.826-164.299-130.127-223.891l-0.113-0.109c-91.389-91.729-217.824-148.488-357.515-148.488-0.986 0-1.972 0.003-2.957 0.008l0.152-0.001zM964.48 563.84c5.382-0.015 10.371-1.688 14.485-4.536l-0.085 0.056c-48-43.84-331.2-303.36-374.72-342.080l-14.4-5.44-5.12-22.72c-6.077-22.018-18.834-40.483-35.92-53.584l-0.24-0.176c-46.354-25.066-100.829-41.507-158.701-45.685l-1.299-0.075c14.019 26.139 25.090 56.44 31.629 88.393l0.371 2.167c14.878 38.656 50.448 66.17 92.785 69.101l0.335 0.019h11.2l9.28 6.4 420.48 305.28c1.251 0.231 2.69 0.363 4.16 0.363s2.909-0.132 4.306-0.385l-0.146 0.022zM962.88 603.52c-0.044 0-0.096 0-0.148 0-10.657 0-20.734-2.481-29.686-6.896l0.394 0.176s-421.44-305.28-421.44-305.28c-61.632-4.257-112.496-45.946-130.277-102.319l-0.283-1.041c-10.322-49.717-32.815-93.063-64.237-128.27l0.237 0.27c-7.040-7.68 0-18.88 12.16-19.2v0c7.36 0 184.96 12.8 244.8 61.76 24.851 19.148 42.995 45.919 50.984 76.778l0.216 0.982c1.6 0 388.16 354.24 388.8 354.88 5.323 6.693 8.541 15.268 8.541 24.594 0 12.379-5.668 23.433-14.551 30.71l-0.070 0.056c-11.277 10.142-26.274 16.344-42.719 16.344-0.619 0-1.236-0.009-1.851-0.026l0.090 0.002zM507.65 264.85l29.533 30.646 90.786-87.488-29.533-30.646-90.786 87.488z" />
<glyph unicode="&#xe93f;" glyph-name="sxp_designer-16" data-tags="sxp_designer-16" d="M213.44 234.88c10.244-0.636 19.444-4.648 26.611-10.924l-0.051 0.044c9.823-7.924 16.053-19.96 16.053-33.452 0-10.137-3.518-19.453-9.399-26.793l0.066 0.085c-7.865-9.595-19.717-15.669-32.988-15.669-23.505 0-42.56 19.055-42.56 42.56s19.055 42.56 42.56 42.56c0.347 0 0.694-0.004 1.039-0.012l-0.051 0.001zM214.72 275.84c-0.385 0.006-0.84 0.010-1.295 0.010-46.628 0-84.532-37.352-85.424-83.766l-0.001-0.083c2.835-44.884 39.932-80.214 85.28-80.214s82.445 35.33 85.267 79.966l0.013 0.247c0 0.018 0 0.040 0 0.062 0 26.935-12.417 50.969-31.839 66.692l-0.161 0.126c-14.486 11.449-32.976 18.415-53.087 18.56h-0.033zM640 661.44c16.765-0.339 31.187-10.037 38.285-24.069l0.115-0.251c2.554-5.417 4.046-11.767 4.046-18.464 0-4.837-0.778-9.492-2.215-13.848l0.089 0.312c-6.156-16.41-21.713-27.877-39.947-27.877-23.505 0-42.56 19.055-42.56 42.56 0 16.607 9.511 30.992 23.384 38.005l0.243 0.112c5.224 2.231 11.303 3.528 17.684 3.528 0.308 0 0.615-0.003 0.922-0.009l-0.046 0.001zM640 704c-47.114-0.181-85.259-38.326-85.44-85.423v-0.017c0-0.054 0-0.117 0-0.181 0-13.348 3.192-25.95 8.855-37.085l-0.215 0.466c14.11-28.641 43.094-48 76.6-48 47.010 0 85.12 38.11 85.12 85.12 0 46.94-37.995 85.006-84.909 85.12h-0.011zM426.56 789.44c1.443 0.23 3.106 0.362 4.8 0.362s3.357-0.132 4.98-0.385l-0.18 0.023c11.362-2.384 20.779-9.287 26.459-18.699l0.101-0.181c4.012-6.374 6.392-14.126 6.392-22.433 0-23.505-19.055-42.56-42.56-42.56s-42.56 19.055-42.56 42.56c0 15.215 7.983 28.564 19.99 36.089l0.178 0.104c6.346 4.016 14.072 6.4 22.354 6.4 0.016 0 0.032 0 0.048 0h-0.002zM426.56 833.28c-46.951-0.311-84.892-38.444-84.892-85.438 0-40.296 27.896-74.077 65.429-83.084l0.582-0.118c5.669-1.205 12.188-1.904 18.868-1.92h0.012c1.563-0.102 3.388-0.16 5.226-0.16 47.187 0 85.44 38.253 85.44 85.44s-38.253 85.44-85.44 85.44c-1.839 0-3.664-0.058-5.474-0.173l0.247 0.013zM213.44 746.56c23.505 0 42.56-19.055 42.56-42.56v0c0.076-0.72 0.119-1.555 0.119-2.4s-0.043-1.68-0.127-2.503l0.009 0.103c-1.537-11.191-7.436-20.77-15.895-27.125l-0.105-0.075c-5.689-3.011-12.436-4.779-19.595-4.779-23.505 0-42.56 19.055-42.56 42.56 0 9.932 3.402 19.069 9.104 26.31l-0.069-0.091c7.205 5.782 16.458 9.28 26.529 9.28 0.011 0 0.022 0 0.033 0h-0.002zM213.44 788.16c-0.031 0-0.068 0-0.105 0-47.187 0-85.44-38.253-85.44-85.44s38.253-85.44 85.44-85.44c47.187 0 85.44 38.253 85.44 85.44 0 20.299-7.079 38.945-18.903 53.603l0.128-0.163c-15.796 19.518-39.721 31.917-66.546 32h-0.014zM380.16-64c-88.45 2.818-170.398 28.262-240.971 70.695l2.251-1.255c-91.2 54.4-141.44 128-141.44 207.36-0.012 0.795-0.019 1.733-0.019 2.672 0 70.7 38.213 132.475 95.112 165.797l0.906 0.491c32 24.32 48 37.12 48 66.24s-16 42.24-48 66.56c-57.83 34.2-96.005 96.243-96.005 167.201 0 0.506 0.002 1.011 0.006 1.516v-0.077c0 79.68 49.92 152.96 141.12 207.36 68.228 41.14 150.060 66.579 237.604 69.42l0.796 0.020c0.445 0.001 0.971 0.002 1.498 0.002 114.78 0 220.599-38.369 305.329-102.98l-1.227 0.898c69.809-59.392 125.061-133.736 161.103-218.238l1.457-3.842c1.544-2.887 2.451-6.315 2.451-9.954 0-11.841-9.599-21.44-21.44-21.44-9.451 0-17.473 6.115-20.327 14.603l-0.044 0.151c-34.178 81.437-84.78 150.006-148.066 204.186l-0.734 0.614c-76.815 58.329-174.040 93.44-279.466 93.44-0.188 0-0.375 0-0.563 0h0.029c-80.368-2.925-154.695-26.339-218.655-65.135l2.015 1.135c-77.44-45.76-120.32-106.24-120.32-169.92-0.008-0.568-0.012-1.238-0.012-1.91 0-56.886 31.315-106.457 77.647-132.416l0.766-0.394c36.77-19.783 61.838-57.135 63.989-100.517l0.011-0.283c-2.145-43.581-27.23-80.847-63.356-100.165l-0.644-0.315c-47.097-26.353-78.412-75.925-78.412-132.81 0-0.671 0.004-1.342 0.013-2.011l-0.001 0.102c0-64 42.88-124.48 120.32-170.56 62.115-37.801 136.69-61.237 216.518-63.979l0.762-0.021c0.45-0.002 0.983-0.002 1.517-0.002 128.479 0 244.694 52.508 328.356 137.235l0.047 0.048c55.151 53.562 96.309 121.241 117.654 197.211l0.746 3.109c1.763 10.215 10.558 17.887 21.144 17.887 1.235 0 2.445-0.104 3.623-0.305l-0.127 0.018c10.216-1.92 17.842-10.772 17.842-21.404 0-1.142-0.088-2.263-0.257-3.358l0.016 0.122c-23.39-88.472-68.826-164.299-130.127-223.891l-0.113-0.109c-91.42-91.919-217.983-148.806-357.832-148.806-0.875 0-1.749 0.002-2.623 0.007l0.135-0.001zM964.48 563.84c5.382-0.015 10.371-1.688 14.485-4.536l-0.085 0.056c-48-43.84-331.2-303.36-374.72-342.080l-14.4-5.44-5.12-22.72c-6.077-22.018-18.834-40.483-35.92-53.584l-0.24-0.176c-46.354-25.066-100.829-41.507-158.701-45.685l-1.299-0.075c14.019 26.139 25.090 56.44 31.629 88.393l0.371 2.167c14.878 38.656 50.448 66.17 92.785 69.101l0.335 0.019h11.2l9.28 6.4 420.48 305.28c1.251 0.231 2.69 0.363 4.16 0.363s2.909-0.132 4.306-0.385l-0.146 0.022zM962.88 603.52c-0.044 0-0.096 0-0.148 0-10.657 0-20.734-2.481-29.686-6.896l0.394 0.176s-421.44-305.28-421.44-305.28c-61.632-4.257-112.496-45.946-130.277-102.319l-0.283-1.041c-10.322-49.717-32.815-93.063-64.237-128.27l0.237 0.27c-7.040-7.68 0-18.88 12.16-19.2v0c7.36 0 184.96 12.8 244.8 61.76 24.796 19.197 42.922 45.947 50.98 76.769l0.22 0.991c1.6 0 388.16 354.24 388.8 354.88 5.323 6.693 8.541 15.268 8.541 24.594 0 12.379-5.668 23.433-14.551 30.71l-0.070 0.056c-11.277 10.142-26.274 16.344-42.719 16.344-0.619 0-1.236-0.009-1.851-0.026l0.090 0.002zM507.616 264.722l29.549 30.631 90.74-87.535-29.549-30.631-90.74 87.535z" />
<glyph unicode="&#xe940;" glyph-name="sxp_tooltip24" data-tags="sxp_tooltip24" d="M512-64c-281.6 0-512 230.4-512 512s230.4 512 512 512 512-230.4 512-512-230.4-512-512-512zM512 917.333c-260.267 0-469.333-209.067-469.333-469.333s209.067-469.333 469.333-469.333 469.333 209.067 469.333 469.333-209.067 469.333-469.333 469.333zM554.667 661.333c0-23.564-19.103-42.667-42.667-42.667s-42.667 19.103-42.667 42.667c0 23.564 19.103 42.667 42.667 42.667s42.667-19.103 42.667-42.667zM554.667 277.333v0 256h-128v-42.667c25.6 0 42.667-17.067 42.667-42.667v-170.667c0-25.6-17.067-42.667-42.667-42.667v-42.667h170.667v42.667c-25.6 0-42.667 17.067-42.667 42.667z" />
<glyph unicode="&#xe941;" glyph-name="cart4" data-tags="cart4" d="M307.2 140.8c-57.6 0-102.4-44.8-102.4-102.4s44.8-102.4 102.4-102.4 102.4 44.8 102.4 102.4c0 57.6-44.8 102.4-102.4 102.4zM0 960v-102.4h102.4l185.6-387.2-70.4-124.8c-9.6-12.8-12.8-32-12.8-48 0-57.6 44.8-102.4 102.4-102.4h614.4v102.4h-592c-6.4 0-12.8 6.4-12.8 12.8v6.4l44.8 83.2h380.8c38.4 0 73.6 22.4 89.6 51.2l182.4 332.8c6.4 6.4 9.6 12.8 9.6 22.4 0 28.8-22.4 51.2-51.2 51.2h-758.4l-48 102.4c0 0-166.4 0-166.4 0zM819.2 140.8c-57.6 0-102.4-44.8-102.4-102.4s44.8-102.4 102.4-102.4c57.6 0 102.4 44.8 102.4 102.4s-44.8 102.4-102.4 102.4z" />
<glyph unicode="&#xe942;" glyph-name="euro" data-tags="euro" d="M700.8 124.8c-134.4 0-252.8 76.8-310.4 188.8h310.4l54.4 108.8h-400c-3.2 19.2-3.2 35.2-3.2 54.4s3.2 35.2 3.2 54.4h345.6l54.4 108.8h-364.8c57.6 112 176 188.8 310.4 188.8 86.4 0 166.4-32 227.2-83.2l96 96c-86.4 70.4-198.4 118.4-323.2 118.4-211.2 0-390.4-134.4-457.6-323.2h-188.8l-54.4-108.8h217.6c-3.2-19.2-3.2-35.2-3.2-54.4s0-35.2 3.2-54.4h-163.2l-54.4-105.6h243.2c67.2-188.8 246.4-323.2 457.6-323.2 124.8 0 236.8 48 323.2 124.8l-96 96c-60.8-54.4-140.8-86.4-227.2-86.4z" />
<glyph unicode="&#xe943;" glyph-name="palette" data-tags="palette" d="M515.080 832c-329.092 0-515.080-218.704-515.080-378.694 0-243.774 218.708-380.954 400.616-425.912 181.924-44.976 250.344 37.53 247.428 132.606-3.542 115.5 54.146 116.992 95.040 112.918 40.862-4.102 280.916-59.528 280.916 124.43 0 227.652-179.856 434.652-508.92 434.652zM448 768c35.346 0 64-28.654 64-64s-28.654-64-64-64-64 28.654-64 64 28.654 64 64 64zM160 383.508c-17.946 0-32.492 14.546-32.492 32.492s14.546 32.492 32.492 32.492 32.492-14.546 32.492-32.492-14.546-32.492-32.492-32.492zM256 512c-35.346 0-64 28.654-64 64s28.654 64 64 64 64-28.654 64-64-28.654-64-64-64zM512 256c-70.692 0-128 42.98-128 96s57.308 96 128 96c70.694 0 128-42.98 128-96s-57.306-96-128-96zM736 512c-53.020 0-96 42.98-96 96s42.98 96 96 96 96-42.98 96-96-42.98-96-96-96z" />
<glyph unicode="&#xe944;" glyph-name="percent" data-tags="percent" d="M0 633.6c0 166.4 76.8 246.4 220.8 246.4 140.8 0 214.4-80 214.4-246.4s-73.6-246.4-214.4-246.4c-144 0-220.8 80-220.8 246.4zM313.6 633.6c0 105.6-25.6 153.6-92.8 153.6-70.4 0-96-48-96-153.6 0-102.4 25.6-153.6 96-153.6 67.2 0 92.8 48 92.8 153.6zM256 48l425.6 816h86.4v-16l-425.6-816h-86.4v16zM588.8 262.4c0 166.4 73.6 246.4 217.6 246.4 140.8 0 217.6-80 217.6-246.4s-76.8-246.4-217.6-246.4c-144 0-217.6 80-217.6 246.4zM899.2 262.4c0 105.6-25.6 153.6-92.8 153.6s-96-48-96-153.6c0-102.4 25.6-153.6 96-153.6 67.2 0 92.8 48 92.8 153.6z" />
<glyph unicode="&#xe945;" glyph-name="double-arrow-right" data-tags="double-arrow-right" d="M121.6 960l-51.2-51.2 460.8-460.8-460.8-460.8 51.2-51.2 512 512zM441.6 960l-51.2-51.2 460.8-460.8-460.8-460.8 51.2-51.2 512 512z" />
<glyph unicode="&#xe946;" glyph-name="invoice" data-tags="description" d="M554 554.667h236l-236 234v-234zM682 340.667v86h-340v-86h340zM682 170.667v86h-340v-86h340zM598 852.667l256-256v-512q0-34-26-59t-60-25h-512q-34 0-60 25t-26 59l2 684q0 34 25 59t59 25h342z" />
<glyph unicode="&#xe947;" glyph-name="datacheck" data-tags="library_add_check" d="M170 682.667v-598h598v-84h-598q-34 0-59 25t-25 59v598h84zM532 340.667l278 282-60 60-218-220-88 88-60-60zM854 852.667q34 0 59-25t25-59v-512q0-34-25-60t-59-26h-512q-34 0-60 26t-26 60v512q0 34 26 59t60 25h512z" />
<glyph unicode="&#xe99a;" glyph-name="graduation" data-tags="graduation" d="M192 372.668v-148.668c0-64 143.268-160 320-160 176.73 0 320 96 320 160v148.668l-320-160-320 160zM512 832l-512-256 512-256 415.428 207.714-31.428-271.714h64v288l64 32-512 256zM544 561.6c-25.626 0-46.4 20.774-46.4 46.4s20.774 46.4 46.4 46.4 46.4-20.774 46.4-46.4c0-25.626-20.772-46.4-46.4-46.4z" />
<glyph unicode="&#xe9fe;" glyph-name="cart3" data-tags="cart3" d="M384 32c0-53.019-42.981-96-96-96s-96 42.981-96 96c0 53.019 42.981 96 96 96s96-42.981 96-96zM1024 32c0-53.019-42.981-96-96-96s-96 42.981-96 96c0 53.019 42.981 96 96 96s96-42.981 96-96zM1024 448v384h-768c0 35.346-28.654 64-64 64h-192v-64h128l48.074-412.054c-29.294-23.458-48.074-59.5-48.074-99.946 0-70.696 57.308-128 128-128h768v64h-768c-35.346 0-64 28.654-64 64 0 0.218 0.014 0.436 0.016 0.656l831.984 127.344z" />
</font>
</defs>
</svg>
